Поиск

(Jazz) Guillermo Gregorio "Coplanar" - 2005, APE (image+.cue), lossless

(Jazz) Guillermo Gregorio "Coplanar" - 2005, APE (image+.cue), lossless
Треклист:
Guillermo Gregorio "Coplanar"
Жанр: Jazz
Год выпуска диска: 2005
Производитель диска: New World (USA)
Аудио кодек: APE
Тип рипа: image+.cue
Битрейт аудио: lossless
Продолжительность: 75'45
Трэклист:
01 Coplanar 1+2
02 Coplanar 4
03 Coplanar 3
04 White Coplanar
05 Construction With Coplanar
06 Madi Piece
07 Swiss Coplanar
08 Coplanar 5
Доп. информация: Guillermo Gregorio, clarinet, alto saxophone, conductor
Kyle Bruckmann, oboe, accordion
Jen Clare Paulson, viola
Fred Lonberg-Holm, cello
Michael Cameron, contrabass
John Corbett, guitar
Jim Baker, piano, ARP synthesizer
GUESTS:
Marc Unternährer, tuba (2, 5, 7)
Steffen Schleiermacher, piano (3)
Warren Po, cracklebox (4)
Jennifer Walshe, voice (7)
Aram Shelton, E-flat clarinet (8)
Ken Vandermark, bass clarinet (8)
 
скрытый текст
EAC extraction logfile from 14. October 2007, 15:02 for CD
Guillermo Gregorio / Coplanar
Used drive : HL-DT-STDVDRAM GSA-4167B Adapter: 1 ID: 0
Read mode : Secure with NO C2, accurate stream, disable cache
Read offset correction : 667
Overread into Lead-In and Lead-Out : No
Used output format : Internal WAV Routines
44.100 Hz; 16 Bit; Stereo
Other options :
Fill up missing offset samples with silence : Yes
Delete leading and trailing silent blocks : No
Native Win32 interface for Win NT & 2000
Track 1
Filename E:\Coplanar\01 Coplanar 1+2.wav
Pre-gap length 0:00:02.00
Peak level 82.1 %
Track quality 100.0 %
Test CRC DECFA67D
Copy CRC DECFA67D
Copy OK
Track 2
Filename E:\Coplanar\02 Coplanar 4.wav
Pre-gap length 0:00:06.56
Peak level 87.8 %
Track quality 100.0 %
Test CRC C29C1DFA
Copy CRC C29C1DFA
Copy OK
Track 3
Filename E:\Coplanar\03 Coplanar 3.wav
Pre-gap length 0:00:06.56
Peak level 88.2 %
Track quality 100.0 %
Test CRC 46CE1811
Copy CRC 46CE1811
Copy OK
Track 4
Filename E:\Coplanar\04 White Coplanar.wav
Pre-gap length 0:00:06.57
Peak level 83.0 %
Track quality 100.0 %
Test CRC 8C3B6E2D
Copy CRC 8C3B6E2D
Copy OK
Track 5
Filename E:\Coplanar\05 Construction With Coplanar.wav
Pre-gap length 0:00:06.56
Peak level 80.8 %
Track quality 100.0 %
Test CRC A9E0531A
Copy CRC A9E0531A
Copy OK
Track 6
Filename E:\Coplanar\06 Madi Piece.wav
Pre-gap length 0:00:06.57
Peak level 78.9 %
Track quality 100.0 %
Test CRC 17EE85F0
Copy CRC 17EE85F0
Copy OK
Track 7
Filename E:\Coplanar\07 Swiss Coplanar.wav
Pre-gap length 0:00:06.56
Peak level 87.9 %
Track quality 100.0 %
Test CRC E4E50E81
Copy CRC E4E50E81
Copy OK
Track 8
Filename E:\Coplanar\08 Coplanar 5.wav
Pre-gap length 0:00:06.57
Peak level 86.2 %
Track quality 100.0 %
Test CRC 6980F962
Copy CRC 6980F962
Copy OK
No errors occured
End of status report
Приватный:
Нет (DHT включён)
Размер:
245.08 Мб (256,985,666 байт) » файлов: 13
Участники:
0 раздают, 0 качают (0 участников всего)
Внешние участники:
1 раздают, 0 качают (1 участников всего) [ Обновить ]
No seeders - write a personal message to user M0p94ok. Нет сидеров - пишите личное сообщение пользователю M0p94ok.
05:13
45
Нет комментариев. Ваш будет первым!