Поиск

(Nuevo tango|Latin) Astor Piazzolla - The History of Tango - (5CD), 2006, FLAC (image+.cue), lossless

Треклист:
Astor Piazzolla - The History of Tango (5CD)


Жанр: Nuevo tango|Latin
Год выпуска дисков: Nov 21, 2006
Производитель диска: USA, Deja Vu
Аудио кодек: Flac
Тип рипа: image +.cue
Битрейт аудио: lossless
Сканы: в комплекте
Трэклист:
 
CD1:

Продолжительность: 01:00:25
Трэклист:
1. Adios Nonino
2. Biyuya
3. Lunfardo
4. Escualo
5. Inverno Porteno
6. Caliente
7. Revirado
8. Decarismo
9. Fracanapa
10. Milonga del Angel
11. Muerte del Angel
12. Resurreccion del Angel
 
Лог EAC
Exact Audio Copy V0.99 prebeta 4 from 23. January 2008
EAC extraction logfile from 13. January 2009, 7:46
Astor Piazzolla / The History of Tango 1
Used drive : LITE-ON DVDRW SOHW-1673S Adapter: 4 ID: 0
Read mode : Secure
Utilize accurate stream : Yes
Defeat audio cache : Yes
Make use of C2 pointers : No
Read offset correction : 12
Overread into Lead-In and Lead-Out : No
Fill up missing offset samples with silence : Yes
Delete leading and trailing silent blocks : No
Null samples used in CRC calculations : Yes
Used interface : Installed external ASPI interface
Used output format : Internal WAV Routines
Sample format : 44.100 Hz; 16 Bit; Stereo
TOC of the extracted CD
Track | Start | Length | Start sector | End sector
---------------------------------------------------------
1 | 0:00.00 | 8:35.39 | 0 | 38663
2 | 8:35.39 | 6:10.06 | 38664 | 66419
3 | 14:45.45 | 5:42.17 | 66420 | 92086
4 | 20:27.62 | 3:16.19 | 92087 | 106805
5 | 23:44.06 | 6:37.60 | 106806 | 136640
6 | 30:21.66 | 4:36.06 | 136641 | 157346
7 | 34:57.72 | 3:19.56 | 157347 | 172327
8 | 38:17.53 | 2:42.26 | 172328 | 184503
9 | 41:00.04 | 3:39.01 | 184504 | 200929
10 | 44:39.05 | 6:21.34 | 200930 | 229538
11 | 51:00.39 | 2:51.62 | 229539 | 242425
12 | 53:52.26 | 6:32.58 | 242426 | 271883
Range status and errors
Selected range
Filename E:\The History of Tango\Astor Piazzolla - The History of Tango 1.wav
Peak level 68.0 %
Range quality 100.0 %
Test CRC BE11D132
Copy CRC BE11D132
Copy OK
No errors occurred
AccurateRip summary
Track 1 not present in database
Track 2 not present in database
Track 3 not present in database
Track 4 not present in database
Track 5 not present in database
Track 6 not present in database
Track 7 not present in database
Track 8 not present in database
Track 9 not present in database
Track 10 not present in database
Track 11 not present in database
Track 12 not present in database
None of the tracks are present in the AccurateRip database
End of status report
 
CD2:

Продолжительность: 58:38
Трэклист:
1. El Recodo
2. El Desbande
3. La Rayuela
4. Orgullo Criollo
5. Inspiracion
6. El Rapido
7. Ahi Va el Dulce
8. El Milagro
9. El Pillete
10. Se Armo
11. Quejas de Bandoneon
12. Todo Corazon
13. Taconeando
14. Chiclana
15. De Mi Bandoneon
16. Tierra Querida
17. Villeguita
18. Tiernamente
19. Tu Palido Final
20. Tapera
 
Лог EAC
Exact Audio Copy V0.99 prebeta 4 from 23. January 2008
EAC extraction logfile from 13. January 2009, 12:47
Astor Piazzolla / The History of Tango 2
Used drive : LITE-ON DVDRW SOHW-1673S Adapter: 4 ID: 0
Read mode : Secure
Utilize accurate stream : Yes
Defeat audio cache : Yes
Make use of C2 pointers : No
Read offset correction : 12
Overread into Lead-In and Lead-Out : No
Fill up missing offset samples with silence : Yes
Delete leading and trailing silent blocks : No
Null samples used in CRC calculations : Yes
Used interface : Installed external ASPI interface
Used output format : Internal WAV Routines
Sample format : 44.100 Hz; 16 Bit; Stereo
TOC of the extracted CD
Track | Start | Length | Start sector | End sector
---------------------------------------------------------
1 | 0:00.00 | 2:25.53 | 0 | 10927
2 | 2:25.53 | 2:59.15 | 10928 | 24367
3 | 5:24.68 | 2:54.64 | 24368 | 37481
4 | 8:19.57 | 3:09.42 | 37482 | 51698
5 | 11:29.24 | 3:06.31 | 51699 | 65679
6 | 14:35.55 | 3:08.37 | 65680 | 79816
7 | 17:44.17 | 2:57.31 | 79817 | 93122
8 | 20:41.48 | 3:15.72 | 93123 | 107819
9 | 23:57.45 | 2:23.49 | 107820 | 118593
10 | 26:21.19 | 2:42.05 | 118594 | 130748
11 | 29:03.24 | 2:49.66 | 130749 | 143489
12 | 31:53.15 | 2:42.58 | 143490 | 155697
13 | 34:35.73 | 3:03.12 | 155698 | 169434
14 | 37:39.10 | 2:47.28 | 169435 | 181987
15 | 40:26.38 | 2:38.58 | 181988 | 193895
16 | 43:05.21 | 3:09.01 | 193896 | 208071
17 | 46:14.22 | 3:18.70 | 208072 | 222991
18 | 49:33.17 | 2:55.62 | 222992 | 236178
19 | 52:29.04 | 2:41.46 | 236179 | 248299
20 | 55:10.50 | 3:26.69 | 248300 | 263818
Range status and errors
Selected range
Filename E:\The History of Tango\Astor Piazzolla - The History of Tango 2.wav
Peak level 73.0 %
Range quality 99.9 %
Test CRC E5C7D573
Copy CRC E5C7D573
Copy OK
No errors occurred
AccurateRip summary
Track 1 not present in database
Track 2 not present in database
Track 3 not present in database
Track 4 not present in database
Track 5 not present in database
Track 6 not present in database
Track 7 not present in database
Track 8 not present in database
Track 9 not present in database
Track 10 not present in database
Track 11 not present in database
Track 12 not present in database
Track 13 not present in database
Track 14 not present in database
Track 15 not present in database
Track 16 not present in database
Track 17 not present in database
Track 18 not present in database
Track 19 not present in database
Track 20 not present in database
None of the tracks are present in the AccurateRip database
End of status report
 
CD3:

Продолжительность: 01:03:59
Трэклист:
1. Como Abrazado a un Rencor
2. Che Bartolo
3. Solo Se Quiere una Vez
4. Haragan
5. Cargamento
6. Se Fue Sin Decirme Adios
7. Ojos Tristes
8. Pigmalion
9. Adios Marienero
10. Cafetin de Buenos Aires
11. Republica Argentina
12. Marron y Azul
13. Los Mareados
14. Neotango
15. El Marne
16. El Entrerriano
17. Tangology
18. Arrabal
19. A Fuego Lento
20. Libertango
 
Лог EAC
Exact Audio Copy V0.99 prebeta 4 from 23. January 2008
EAC extraction logfile from 16. January 2009, 16:17
Astor Piazzolla / The HIstory of Tango 3
Used drive : LITE-ON DVDRW SOHW-1673S Adapter: 4 ID: 0
Read mode : Secure
Utilize accurate stream : Yes
Defeat audio cache : Yes
Make use of C2 pointers : No
Read offset correction : 12
Overread into Lead-In and Lead-Out : No
Fill up missing offset samples with silence : Yes
Delete leading and trailing silent blocks : No
Null samples used in CRC calculations : Yes
Used interface : Installed external ASPI interface
Used output format : Internal WAV Routines
Sample format : 44.100 Hz; 16 Bit; Stereo
TOC of the extracted CD
Track | Start | Length | Start sector | End sector
---------------------------------------------------------
1 | 0:00.00 | 2:41.49 | 0 | 12123
2 | 2:41.49 | 2:29.17 | 12124 | 23315
3 | 5:10.66 | 3:13.63 | 23316 | 37853
4 | 8:24.54 | 2:35.15 | 37854 | 49493
5 | 10:59.69 | 2:39.32 | 49494 | 61450
6 | 13:39.26 | 3:08.60 | 61451 | 75610
7 | 16:48.11 | 2:20.48 | 75611 | 86158
8 | 19:08.59 | 3:10.61 | 86159 | 100469
9 | 22:19.45 | 2:29.08 | 100470 | 111652
10 | 24:48.53 | 3:06.05 | 111653 | 125607
11 | 27:54.58 | 3:10.47 | 125608 | 139904
12 | 31:05.30 | 3:32.05 | 139905 | 155809
13 | 34:37.35 | 3:41.10 | 155810 | 172394
14 | 38:18.45 | 3:17.52 | 172395 | 187221
15 | 41:36.22 | 4:26.49 | 187222 | 207220
16 | 46:02.71 | 3:04.69 | 207221 | 221089
17 | 49:07.65 | 3:26.11 | 221090 | 236550
18 | 52:34.01 | 3:30.39 | 236551 | 252339
19 | 56:04.40 | 3:34.69 | 252340 | 268458
20 | 59:39.34 | 4:19.71 | 268459 | 287954
Range status and errors
Selected range
Filename E:\The History of Tango\Astor Piazzolla - The HIstory of Tango 3.wav
Peak level 92.9 %
Range quality 100.0 %
Test CRC 47CFC85F
Copy CRC 47CFC85F
Copy OK
No errors occurred
AccurateRip summary
Track 1 not present in database
Track 2 not present in database
Track 3 not present in database
Track 4 not present in database
Track 5 not present in database
Track 6 not present in database
Track 7 not present in database
Track 8 not present in database
Track 9 not present in database
Track 10 not present in database
Track 11 not present in database
Track 12 not present in database
Track 13 not present in database
Track 14 not present in database
Track 15 not present in database
Track 16 not present in database
Track 17 not present in database
Track 18 not present in database
Track 19 not present in database
Track 20 not present in database
None of the tracks are present in the AccurateRip database
End of status report
 
CD4:

Продолжительность: 01:09:15
Трэклист:
1. La Cumparsita
2. La Yumba
3. Tomo y Obligo
4. La Tablada
5. La Rayuela
6. El Apache Argentino
7. El Entrerriano
8. El Choclo
9. Volver
10. Recuerdo
11. El Pial
12. Boedo
13. El Portenito
14. Chique
15. Tango Argentino
16. Milonga de Mis Amores
17. El Rodeo
18. El Monito
19. La Punalada
20. Cachirulo
21. Sans Souci
22. Bandoneon Arrabalero
23. La Morocha
24. Flor de Tango
25. Tierra Querida
 
Лог EAC
Exact Audio Copy V0.99 prebeta 4 from 23. January 2008
EAC extraction logfile from 19. January 2009, 16:05
Astor Piazzolla / History of Tango CD4
Used drive : LITE-ON DVDRW SOHW-1673S Adapter: 4 ID: 0
Read mode : Secure
Utilize accurate stream : Yes
Defeat audio cache : Yes
Make use of C2 pointers : No
Read offset correction : 12
Overread into Lead-In and Lead-Out : No
Fill up missing offset samples with silence : Yes
Delete leading and trailing silent blocks : No
Null samples used in CRC calculations : Yes
Used interface : Installed external ASPI interface
Used output format : Internal WAV Routines
Sample format : 44.100 Hz; 16 Bit; Stereo
TOC of the extracted CD
Track | Start | Length | Start sector | End sector
---------------------------------------------------------
1 | 0:00.00 | 4:00.18 | 0 | 18017
2 | 4:00.18 | 2:47.54 | 18018 | 30596
3 | 6:47.72 | 2:19.67 | 30597 | 41088
4 | 9:07.64 | 3:02.58 | 41089 | 54796
5 | 12:10.47 | 3:02.37 | 54797 | 68483
6 | 15:13.09 | 2:33.69 | 68484 | 80027
7 | 17:47.03 | 2:40.39 | 80028 | 92066
8 | 20:27.42 | 3:09.10 | 92067 | 106251
9 | 23:36.52 | 2:56.11 | 106252 | 119462
10 | 26:32.63 | 2:43.50 | 119463 | 131737
11 | 29:16.38 | 2:42.50 | 131738 | 143937
12 | 31:59.13 | 3:00.30 | 143938 | 157467
13 | 34:59.43 | 2:49.61 | 157468 | 170203
14 | 37:49.29 | 2:53.72 | 170204 | 183250
15 | 40:43.26 | 2:27.13 | 183251 | 194288
16 | 43:10.39 | 2:29.54 | 194289 | 205517
17 | 45:40.18 | 2:28.28 | 205518 | 216645
18 | 48:08.46 | 2:53.37 | 216646 | 229657
19 | 51:02.08 | 2:18.40 | 229658 | 240047
20 | 53:20.48 | 2:37.22 | 240048 | 251844
21 | 55:57.70 | 2:58.14 | 251845 | 265208
22 | 58:56.09 | 2:09.43 | 265209 | 274926
23 | 61:05.52 | 2:24.60 | 274927 | 285786
24 | 63:30.37 | 2:29.13 | 285787 | 296974
25 | 65:59.50 | 3:15.01 | 296975 | 311600
Range status and errors
Selected range
Filename E:\The History of Tango\Astor Piazzolla - History of Tango CD4.wav
Peak level 73.7 %
Range quality 100.0 %
Test CRC 822BF7A2
Copy CRC 822BF7A2
Copy OK
No errors occurred
AccurateRip summary
Track 1 not present in database
Track 2 not present in database
Track 3 not present in database
Track 4 not present in database
Track 5 not present in database
Track 6 not present in database
Track 7 not present in database
Track 8 not present in database
Track 9 not present in database
Track 10 not present in database
Track 11 not present in database
Track 12 not present in database
None of the tracks are present in the AccurateRip database
End of status report
 
CD5:

Продолжительность: 01:08:51
Трэклист:
1. Milonga Sentimental
2. A La Gran Muneca
3. Milongueando en el 40
4. Derecho Viejo
5. El Remate
6. Saludos
7. Mi Buenos Aires Querido
8. Di Pura Cepa
9. Vengan Muchachos
10. El Arranque
11. Por una Cabeza
12. Guapeando
13. El Taita
14. Amurado
15. Bahia Blanca
16. Mi Noche Triste
17. Parlo
18. Mal de Amores
19. Adios Bardi
20. La Cancion de Buenos Aires
21. La Maleva
22. El Baqueano
23. El Tabano
24. Secreto
25. Cordon de Oro
 
Лог EAC
Exact Audio Copy V0.99 prebeta 4 from 23. January 2008
EAC extraction logfile from 21. January 2009, 20:00
Astor Piazzolla / The History Of Tango 5
Used drive : LITE-ON DVDRW SOHW-1673S Adapter: 4 ID: 0
Read mode : Secure
Utilize accurate stream : Yes
Defeat audio cache : Yes
Make use of C2 pointers : No
Read offset correction : 12
Overread into Lead-In and Lead-Out : No
Fill up missing offset samples with silence : Yes
Delete leading and trailing silent blocks : No
Null samples used in CRC calculations : Yes
Used interface : Installed external ASPI interface
Used output format : Internal WAV Routines
Sample format : 44.100 Hz; 16 Bit; Stereo
TOC of the extracted CD
Track | Start | Length | Start sector | End sector
---------------------------------------------------------
1 | 0:00.00 | 3:01.11 | 0 | 13585
2 | 3:01.11 | 2:46.03 | 13586 | 26038
3 | 5:47.14 | 2:33.41 | 26039 | 37554
4 | 8:20.55 | 2:40.21 | 37555 | 49575
5 | 11:01.01 | 2:52.64 | 49576 | 62539
6 | 13:53.65 | 2:33.71 | 62540 | 74085
7 | 16:27.61 | 2:40.55 | 74086 | 86140
8 | 19:08.41 | 2:34.07 | 86141 | 97697
9 | 21:42.48 | 3:17.41 | 97698 | 112513
10 | 25:00.14 | 3:06.63 | 112514 | 126526
11 | 28:07.02 | 2:33.04 | 126527 | 138005
12 | 30:40.06 | 2:49.56 | 138006 | 150736
13 | 33:29.62 | 3:07.07 | 150737 | 164768
14 | 36:36.69 | 2:44.45 | 164769 | 177113
15 | 39:21.39 | 2:54.24 | 177114 | 190187
16 | 42:15.63 | 3:20.47 | 190188 | 205234
17 | 45:36.35 | 2:35.19 | 205235 | 216878
18 | 48:11.54 | 2:55.53 | 216879 | 230056
19 | 51:07.32 | 2:48.10 | 230057 | 242666
20 | 53:55.42 | 2:15.31 | 242667 | 252822
21 | 56:10.73 | 2:43.25 | 252823 | 265072
22 | 58:54.23 | 2:38.59 | 265073 | 276981
23 | 61:33.07 | 2:26.34 | 276982 | 287965
24 | 63:59.41 | 2:23.62 | 287966 | 298752
25 | 66:23.28 | 2:27.25 | 298753 | 309802
Range status and errors
Selected range
Filename E:\The History of Tango\Astor Piazzolla - The History Of Tango 5.wav
Peak level 74.5 %
Range quality 100.0 %
Test CRC 3D1D01A7
Copy CRC 3D1D01A7
Copy OK
No errors occurred
AccurateRip summary
Track 1 not present in database
Track 2 not present in database
Track 3 not present in database
Track 4 not present in database
Track 5 not present in database
Track 6 not present in database
Track 7 not present in database
Track 8 not present in database
Track 9 not present in database
Track 10 not present in database
Track 11 not present in database
Track 12 not present in database
Track 13 not present in database
Track 14 not present in database
Track 15 not present in database
Track 16 not present in database
Track 17 not present in database
Track 18 not present in database
Track 19 not present in database
Track 20 not present in database
Track 21 not present in database
Track 22 not present in database
Track 23 not present in database
Track 24 not present in database
Track 25 not present in database
None of the tracks are present in the AccurateRip database
End of status report
"Музыка больше, чем женщина. Потому что с женщиной можно развестись, а с музыкой - нет. Женившись на ней однажды, вы уйдете с ней в могилу". А. Пьяцолла
Все благодарности за релиз уходят в netlab.
Не забываем нажать - сказать "Спасибо"
По всем вопросам пишите личное сообщение пользователю M0p94ok.
10:47
170
Нет комментариев. Ваш будет первым!