Поиск

(Bossa Nova/Latin Jazz) Chico Buarque - 50 Anos/Пятьдесят лет (Box Set) - 1994, FLAC (image+.cue), lossless

Треклист:
Chico Buarque - 50 Anos/Пятьдесят лет (Box Set)
Жанр: Bossa Nova/Latin Jazz
Год выпуска диска: 1994
Производитель диска: Polygram (Philips) - SET 522797-2 - Brazil
Аудио кодек: FLAC
Тип рипа: image+.cue
Битрейт аудио: lossless
Продолжительность:
Cd 1 - 46:17
Cd 2 - 41:28
Cd 3 - 51:50
Cd 4 - 39:55
Cd 5 - 46:33
Доп. информация:
 
Info/Информация
Chico Buarque Когда ему исполнилось 50 в 1994 году приступило к памятной коллекции компакт-дисков 5 репертуара Выбор был сделан из основных тем его музыкальное произведение, разделенное среди названий любовника, политика, "Трубадур", летописец и Мошенник.
Quando Chico Buarque fez 50 anos, em 1994, foi lançada uma coletânea comemorativa com 5 CDs. A seleção do repertório foi feita a partir dos principais temas de sua obra musical, dividido entre os títulos O Amante, O Político, O Trovador, O Cronista e O Malandro.
 
Cd 1 - O Amante (Любовник)
Трэклист:
1. Atrás Da Porta
2. Tatuagem
3. Olhos Nos Olhos
4. Com Açúcar E Com Afeto
5. Sem Fantasia
6. Mil Perdões
7. Bastidores
8. Trocando Em Miúdos
9. De Todas As Maneiras
10. Pedaço De Mim
11. Não Sonho Mais
12. Tira As Mãos De Mim
13. Cala A Boca, Bárbara
14. Bárbara
 
EAC Log
Exact Audio Copy V0.99 prebeta 5 from 4. May 2009
EAC extraction logfile from 14. December 2009, 17:40
O Amante / Disc 1
Used drive : HL-DT-STDVDRAM GH20NS15 Adapter: 0 ID: 0
Read mode : Secure
Utilize accurate stream : Yes
Defeat audio cache : Yes
Make use of C2 pointers : No
Read offset correction : 667
Overread into Lead-In and Lead-Out : No
Fill up missing offset samples with silence : Yes
Delete leading and trailing silent blocks : No
Null samples used in CRC calculations : Yes
Used interface : Installed external ASPI interface
Used output format : User Defined Encoder
Selected bitrate : 1024 kBit/s
Quality : High
Add ID3 tag : No
Command line compressor : C:\Program Files\Exact Audio Copy\Flac\flac.exe
Additional command line options : -8 -A tukey(0.25) -A gauss(0.1875) -b 4096 -V -T "artist=%a" -T "title=%t" -T "album=%g" -T "date=%y" -T "tracknumber=%n" -T "genre=%m" %s --sector-align
TOC of the extracted CD
Track | Start | Length | Start sector | End sector
---------------------------------------------------------
1 | 0:00.00 | 2:45.60 | 0 | 12434
2 | 2:45.60 | 2:53.07 | 12435 | 25416
3 | 5:38.67 | 4:28.50 | 25417 | 45566
4 | 10:07.42 | 2:55.13 | 45567 | 58704
5 | 13:02.55 | 3:28.62 | 58705 | 74366
6 | 16:31.42 | 3:49.05 | 74367 | 91546
7 | 20:20.47 | 2:33.05 | 91547 | 103026
8 | 22:53.52 | 2:51.18 | 103027 | 115869
9 | 25:44.70 | 1:43.60 | 115870 | 123654
10 | 27:28.55 | 3:16.30 | 123655 | 138384
11 | 30:45.10 | 3:56.50 | 138385 | 156134
12 | 34:41.60 | 2:31.67 | 156135 | 167526
13 | 37:13.52 | 4:15.20 | 167527 | 186671
14 | 41:28.72 | 3:48.30 | 186672 | 203801
Range status and errors
Selected range
Filename D:\Torrents.ru\Chico Buarque\Chico Buarque - 50 Anos\CD 1 - O Amante\Cd 1 - O Amante.wav
Peak level 95.5 %
Range quality 100.0 %
Test CRC C27F84A6
Copy CRC C27F84A6
Copy OK
No errors occurred
End of status report
 
Audiochecker
AUDIOCHECKER v2.0 beta (build 457) - by Dester - opdester@freemail.hu
~~~~~~~~~~~~~~~~~~~~~~~~~~~~~~~~~~
-=== DO NOT EDIT THIS FILE! ===-
Path: ...\CD 1 - O Amante
1 -=- Cd 1 - O Amante.flac -=- CDDA (100%)
215819444
 
Cd 2 - O Trovador (Трубадур)
Трэклист:
01- Eu Te Amo
02- Cotidiano
03- Valsinha
04- Samba Do Grande Amor
05- Morena De Angola
06- Deixe A Menina
07- Você Vai Me Seguir
08- Olha Maria
09- João E Maria
10- Carolina
11- As Vitrines
12- Pois É
13- Tanto Amar
14- Ole, Ola
 
EAC Log
Exact Audio Copy V0.99 prebeta 5 from 4. May 2009
EAC extraction logfile from 14. December 2009, 18:47
O Trovador / Disc 2
Used drive : HL-DT-STDVDRAM GH20NS15 Adapter: 0 ID: 0
Read mode : Secure
Utilize accurate stream : Yes
Defeat audio cache : Yes
Make use of C2 pointers : No
Read offset correction : 667
Overread into Lead-In and Lead-Out : No
Fill up missing offset samples with silence : Yes
Delete leading and trailing silent blocks : No
Null samples used in CRC calculations : Yes
Used interface : Installed external ASPI interface
Used output format : User Defined Encoder
Selected bitrate : 1024 kBit/s
Quality : High
Add ID3 tag : No
Command line compressor : C:\Program Files\Exact Audio Copy\Flac\flac.exe
Additional command line options : -8 -A tukey(0.25) -A gauss(0.1875) -b 4096 -V -T "artist=%a" -T "title=%t" -T "album=%g" -T "date=%y" -T "tracknumber=%n" -T "genre=%m" %s --sector-align
TOC of the extracted CD
Track | Start | Length | Start sector | End sector
---------------------------------------------------------
1 | 0:00.00 | 2:46.28 | 0 | 12477
2 | 2:46.28 | 5:06.20 | 12478 | 35447
3 | 7:52.48 | 2:48.35 | 35448 | 48082
4 | 10:41.08 | 2:02.20 | 48083 | 57252
5 | 12:43.28 | 2:09.65 | 57253 | 66992
6 | 14:53.18 | 3:08.07 | 66993 | 81099
7 | 18:01.25 | 2:41.38 | 81100 | 93212
8 | 20:42.63 | 3:12.40 | 93213 | 107652
9 | 23:55.28 | 3:59.17 | 107653 | 125594
10 | 27:54.45 | 2:23.58 | 125595 | 136377
11 | 30:18.28 | 2:37.32 | 136378 | 148184
12 | 32:55.60 | 2:50.40 | 148185 | 160974
13 | 35:46.25 | 2:36.08 | 160975 | 172682
14 | 38:22.33 | 3:05.52 | 172683 | 186609
Range status and errors
Selected range
Filename D:\Torrents.ru\Chico Buarque\Chico Buarque - 50 Anos\CD 2 - O Trovador\Disc 2 - O Trovador.wav
Peak level 95.5 %
Range quality 100.0 %
Test CRC 0AD1F042
Copy CRC 0AD1F042
Copy OK
No errors occurred
End of status report
 
Audiochecker
AUDIOCHECKER v2.0 beta (build 457) - by Dester - opdester@freemail.hu
~~~~~~~~~~~~~~~~~~~~~~~~~~~~~~~~~~
-=== DO NOT EDIT THIS FILE! ===-
Path: ...\CD 2 - O Trovador
1 -=- Disc 2 - O Trovador.flac -=- CDDA (100%)
62295684
 
Cd 3 - O Cronista (Летописец)
Трэклист:
1. Bye Bye, Brasil
2. Vai Levando
3. O Cio Da Terra
4. Passaredo
5. Pivete
6. O Meu Guri
7. Brejo Da Cruz
8. Geni E O Zepelim
9. Pelas Tabelas
10. Flor Da Idade
11. Fantasia
12. Gente Humilde
13. Feijoada Completa
14. Vai Passar
 
EAC Log
Exact Audio Copy V0.99 prebeta 5 from 4. May 2009
EAC extraction logfile from 14. December 2009, 19:22
O Cronista / Cd 3
Used drive : HL-DT-STDVDRAM GH20NS15 Adapter: 0 ID: 0
Read mode : Secure
Utilize accurate stream : Yes
Defeat audio cache : Yes
Make use of C2 pointers : No
Read offset correction : 667
Overread into Lead-In and Lead-Out : No
Fill up missing offset samples with silence : Yes
Delete leading and trailing silent blocks : No
Null samples used in CRC calculations : Yes
Used interface : Installed external ASPI interface
Used output format : User Defined Encoder
Selected bitrate : 1024 kBit/s
Quality : High
Add ID3 tag : No
Command line compressor : C:\Program Files\Exact Audio Copy\Flac\flac.exe
Additional command line options : -8 -A tukey(0.25) -A gauss(0.1875) -b 4096 -V -T "artist=%a" -T "title=%t" -T "album=%g" -T "date=%y" -T "tracknumber=%n" -T "genre=%m" %s --sector-align
TOC of the extracted CD
Track | Start | Length | Start sector | End sector
---------------------------------------------------------
1 | 0:00.00 | 2:46.40 | 0 | 12489
2 | 2:46.40 | 4:51.00 | 12490 | 34314
3 | 7:37.40 | 2:29.55 | 34315 | 45544
4 | 10:07.20 | 2:44.25 | 45545 | 57869
5 | 12:51.45 | 6:06.32 | 57870 | 85351
6 | 18:58.02 | 4:41.52 | 85352 | 106478
7 | 23:39.54 | 2:34.33 | 106479 | 118061
8 | 26:14.12 | 3:50.35 | 118062 | 135346
9 | 30:04.47 | 2:12.62 | 135347 | 145308
10 | 32:17.34 | 2:25.33 | 145309 | 156216
11 | 34:42.67 | 3:56.50 | 156217 | 173966
12 | 38:39.42 | 3:34.27 | 173967 | 190043
13 | 42:13.69 | 5:21.35 | 190044 | 214153
14 | 47:35.29 | 4:15.23 | 214154 | 233301
Range status and errors
Selected range
Filename D:\Torrents.ru\Chico Buarque\Chico Buarque - 50 Anos\CD 3 - O Cronista\Cd 3 - O Cronista.wav
Peak level 100.0 %
Range quality 100.0 %
Test CRC FCB80FF4
Copy CRC FCB80FF4
Copy OK
No errors occurred
End of status report
 
Audiochecker
AUDIOCHECKER v2.0 beta (build 457) - by Dester - opdester@freemail.hu
~~~~~~~~~~~~~~~~~~~~~~~~~~~~~~~~~~
-=== DO NOT EDIT THIS FILE! ===-
Path: ...\CD 3 - O Cronista
1 -=- Cd 3 - O Cronista.flac -=- CDDA (100%)
212241876
 
Cd 4 - O Malandro (Мошенник)
Трэклист:
1. Vai Trabalhar, Vagabundo
2. Homenagem Ao Malandro
3. Samba E Amor
4. A Banda
5. Quem Te Viu, Quem Te Vê
6. Doze Anos
7. Hino De Duran
8. Nicanor
9. Quando O Carnaval Chegar
10. A Volta Do Malandro
11. Noite Dos Mascarados
12. Mambembe
13. Até O Fim
 
EAC Log
Exact Audio Copy V0.99 prebeta 5 from 4. May 2009
EAC extraction logfile from 15. December 2009, 8:48
O Malandro / Cd 4
Used drive : HL-DT-STDVDRAM GH20NS15 Adapter: 0 ID: 0
Read mode : Secure
Utilize accurate stream : Yes
Defeat audio cache : Yes
Make use of C2 pointers : No
Read offset correction : 667
Overread into Lead-In and Lead-Out : No
Fill up missing offset samples with silence : Yes
Delete leading and trailing silent blocks : No
Null samples used in CRC calculations : Yes
Used interface : Installed external ASPI interface
Used output format : User Defined Encoder
Selected bitrate : 1024 kBit/s
Quality : High
Add ID3 tag : No
Command line compressor : C:\Program Files\Exact Audio Copy\Flac\flac.exe
Additional command line options : -8 -A tukey(0.25) -A gauss(0.1875) -b 4096 -V -T "artist=%a" -T "title=%t" -T "album=%g" -T "date=%y" -T "tracknumber=%n" -T "genre=%m" %s --sector-align
TOC of the extracted CD
Track | Start | Length | Start sector | End sector
---------------------------------------------------------
1 | 0:00.00 | 1:57.37 | 0 | 8811
2 | 1:57.37 | 2:24.13 | 8812 | 19624
3 | 4:21.50 | 2:20.62 | 19625 | 30186
4 | 6:42.37 | 2:55.30 | 30187 | 43341
5 | 9:37.67 | 3:18.55 | 43342 | 58246
6 | 12:56.47 | 2:12.28 | 58247 | 68174
7 | 15:09.00 | 3:26.55 | 68175 | 83679
8 | 18:35.55 | 2:15.60 | 83680 | 93864
9 | 20:51.40 | 3:01.30 | 93865 | 107469
10 | 23:52.70 | 3:12.10 | 107470 | 121879
11 | 27:05.05 | 2:54.02 | 121880 | 134931
12 | 29:59.07 | 2:48.35 | 134932 | 147566
13 | 32:47.42 | 3:59.70 | 147567 | 165561
14 | 36:47.37 | 3:07.53 | 165562 | 179639
Range status and errors
Selected range
Filename D:\Torrents.ru\Chico Buarque\Chico Buarque - 50 Anos\CD 4 - O Malandro\Cd 4 - O Malandro.wav
Peak level 95.5 %
Range quality 99.9 %
Test CRC A8E6EBE1
Copy CRC A8E6EBE1
Copy OK
No errors occurred
End of status report
 
Audiochecker
AUDIOCHECKER v2.0 beta (build 457) - by Dester - opdester@freemail.hu
~~~~~~~~~~~~~~~~~~~~~~~~~~~~~~~~~~
-=== DO NOT EDIT THIS FILE! ===-
Path: ...\CD 4 - O Malandro
1 -=- Cd 4 - O Malandro.flac -=- CDDA (100%)
74053124
 
Cd 5 - O Político (Политика)
Трэклист:
01- Construção
02- Apesar de Você
03- Cálice
04- Samba de Orly
05- Acorda Amor
06- Meu caro Amigo
07- Bom Conselho
08- Gota D'Agua
09- O Que Será ( A Flor da Terra )
10- Fado Tropical
11- Tanto Mar
12- Angélica
13- Cordão
14- Deus lhe Pague
 
EAC Log
Exact Audio Copy V0.99 prebeta 5 from 4. May 2009
EAC extraction logfile from 15. December 2009, 9:21
O Político / Cd 5
Used drive : HL-DT-STDVDRAM GH20NS15 Adapter: 0 ID: 0
Read mode : Secure
Utilize accurate stream : Yes
Defeat audio cache : Yes
Make use of C2 pointers : No
Read offset correction : 667
Overread into Lead-In and Lead-Out : No
Fill up missing offset samples with silence : Yes
Delete leading and trailing silent blocks : No
Null samples used in CRC calculations : Yes
Used interface : Installed external ASPI interface
Used output format : User Defined Encoder
Selected bitrate : 1024 kBit/s
Quality : High
Add ID3 tag : No
Command line compressor : C:\Program Files\Exact Audio Copy\Flac\flac.exe
Additional command line options : -8 -A tukey(0.25) -A gauss(0.1875) -b 4096 -V -T "artist=%a" -T "title=%t" -T "album=%g" -T "date=%y" -T "tracknumber=%n" -T "genre=%m" %s --sector-align
TOC of the extracted CD
Track | Start | Length | Start sector | End sector
---------------------------------------------------------
1 | 0:00.00 | 6:25.37 | 0 | 28911
2 | 6:25.37 | 3:56.23 | 28912 | 46634
3 | 10:21.60 | 4:02.62 | 46635 | 64846
4 | 14:24.47 | 2:44.35 | 64847 | 77181
5 | 17:09.07 | 2:23.60 | 77182 | 87966
6 | 19:32.67 | 4:24.05 | 87967 | 107771
7 | 23:56.72 | 2:02.70 | 107772 | 116991
8 | 25:59.67 | 2:32.13 | 116992 | 128404
9 | 28:32.05 | 2:48.67 | 128405 | 141071
10 | 31:20.72 | 4:13.20 | 141072 | 160066
11 | 35:34.17 | 1:55.40 | 160067 | 168731
12 | 37:29.57 | 3:10.60 | 168732 | 183041
13 | 40:40.42 | 2:33.70 | 183042 | 194586
14 | 43:14.37 | 3:18.58 | 194587 | 209494
Range status and errors
Selected range
Filename D:\Torrents.ru\Chico Buarque\Chico Buarque - 50 Anos\CD 5 - O Político\Cd 5 - O Político.wav
Peak level 100.0 %
Range quality 100.0 %
Test CRC 66C6C1BA
Copy CRC 66C6C1BA
Copy OK
No errors occurred
End of status report
 
Audiochecker
AUDIOCHECKER v2.0 beta (build 457) - by Dester - opdester@freemail.hu
~~~~~~~~~~~~~~~~~~~~~~~~~~~~~~~~~~
-=== DO NOT EDIT THIS FILE! ===-
Path: ...\CD 5 - O Político
1 -=- Cd 5 - O Político.flac -=- CDDA (100%)
264363924
Download available for power users only.
10:48
166
Нет комментариев. Ваш будет первым!