Поиск

(Bossa Nova/Latin Jazz) Chico Buarque - Chico Ao Vivo/Live - 1999, FLAC (image+.cue), lossless

Треклист:
Chico Buarque - Chico Ao Vivo/Live
Жанр: Bossa Nova/Latin Jazz
Год выпуска диска: 1999
Производитель диска: Sony BMG (RCA) - 7432169929-2 - Brazil
Аудио кодек: FLAC
Тип рипа: image+.cue
Битрейт аудио: lossless
Продолжительность: 43:12 + 45:17
Доп. информация:
 
Scans
 
Disc 1
Трэклист:
1. Paratodos
2. Amor Barato
3. A Noiva Da Cidade
4. A Volta do Malandro
5. Homenagem Ao Malandro
6. A Ostra e o Vento
7. Sem Você
8. Cecília
9. Aquela Mulher
10. Sob Medida
11. O Meu Amor
12. Teresinha
13. Injuriado
14. Quem Te Viu, Quem Te Vê
 
X Lossless Decoder Log
X Lossless Decoder version 20090320 (105.1)
XLD extraction logfile from 2009-04-21 18:46:14 -0300
/ CD1
Used drive : MATSHITA DVD-R UJ-875 (revision DA09)
Use cdparanoia mode : YES (CDParanoia III 10.2 engine)
Disable audio cache : OK for the drive with cache less than 2750KB
Make use of C2 pointers : NO
Read offset correction : 102
Max retry count : 100
TOC of the extracted CD
Track | Start | Length | Start sector | End sector
---------------------------------------------------------
1 | 00:00:00 | 03:15:32 | 0 | 14656
2 | 03:15:32 | 02:52:70 | 14657 | 27626
3 | 06:08:27 | 02:36:10 | 27627 | 39336
4 | 08:44:37 | 03:55:00 | 39337 | 56961
5 | 12:39:37 | 03:34:33 | 56962 | 73044
6 | 16:13:70 | 03:28:12 | 73045 | 88656
7 | 19:42:07 | 03:00:18 | 88657 | 102174
8 | 22:42:25 | 04:12:35 | 102175 | 121109
9 | 26:54:60 | 02:08:35 | 121110 | 130744
10 | 29:03:20 | 01:41:35 | 130745 | 138354
11 | 30:44:55 | 02:39:17 | 138355 | 150296
12 | 33:23:72 | 02:50:05 | 150297 | 163051
13 | 36:14:02 | 03:06:38 | 163052 | 177039
14 | 39:20:40 | 03:52:00 | 177040 | 194439
All Tracks
Filename : /Chico Ao Vivo/CD1/CD1.flac
Album gain : -5.46 dB
Peak : 0.977203
CRC32 hash (test run) : 5E0C2164
CRC32 hash : 5E0C2164
CRC32 hash (skip zero) : 714C851C
Statistics
Read error : 0
Skipped (treated as error) : 0
Edge jitter error (maybe fixed) : 0
Atom jitter error (maybe fixed) : 0
Drift error (maybe fixed) : 0
Dropped bytes error (maybe fixed) : 0
Duplicated bytes error (maybe fixed) : 0
Inconsistency in error sectors : 0
Track 01
Track gain : -5.32 dB
Peak : 0.977203
CRC32 hash (test run) : C794570E
CRC32 hash : C794570E
CRC32 hash (skip zero) : FFB07AB9
AccurateRip signature : DA2F9624
->Accurately ripped! (confidence 1)
Statistics
Read error : 0
Skipped (treated as error) : 0
Edge jitter error (maybe fixed) : 0
Atom jitter error (maybe fixed) : 0
Drift error (maybe fixed) : 0
Dropped bytes error (maybe fixed) : 0
Duplicated bytes error (maybe fixed) : 0
Inconsistency in error sectors : 0
Track 02
Track gain : -4.01 dB
Peak : 0.977203
CRC32 hash (test run) : 1E543C2E
CRC32 hash : 1E543C2E
CRC32 hash (skip zero) : FA4FBA3D
AccurateRip signature : B65AC2BA
->Accurately ripped! (confidence 1)
Statistics
Read error : 0
Skipped (treated as error) : 0
Edge jitter error (maybe fixed) : 0
Atom jitter error (maybe fixed) : 0
Drift error (maybe fixed) : 0
Dropped bytes error (maybe fixed) : 0
Duplicated bytes error (maybe fixed) : 0
Inconsistency in error sectors : 0
Track 03
Track gain : -1.82 dB
Peak : 0.977142
CRC32 hash (test run) : E60C5506
CRC32 hash : E60C5506
CRC32 hash (skip zero) : F161B57D
AccurateRip signature : 64106E32
->Accurately ripped! (confidence 1)
Statistics
Read error : 0
Skipped (treated as error) : 0
Edge jitter error (maybe fixed) : 0
Atom jitter error (maybe fixed) : 0
Drift error (maybe fixed) : 0
Dropped bytes error (maybe fixed) : 0
Duplicated bytes error (maybe fixed) : 0
Inconsistency in error sectors : 0
Track 04
Track gain : -5.21 dB
Peak : 0.977203
CRC32 hash (test run) : 137A26BE
CRC32 hash : 137A26BE
CRC32 hash (skip zero) : F249F8D5
AccurateRip signature : 6555D207
->Accurately ripped! (confidence 1)
Statistics
Read error : 0
Skipped (treated as error) : 0
Edge jitter error (maybe fixed) : 0
Atom jitter error (maybe fixed) : 0
Drift error (maybe fixed) : 0
Dropped bytes error (maybe fixed) : 0
Duplicated bytes error (maybe fixed) : 0
Inconsistency in error sectors : 0
Track 05
Track gain : -3.97 dB
Peak : 0.977203
CRC32 hash (test run) : 63F6B3CB
CRC32 hash : 63F6B3CB
CRC32 hash (skip zero) : 3AADE020
AccurateRip signature : D46215AD
->Accurately ripped! (confidence 1)
Statistics
Read error : 0
Skipped (treated as error) : 0
Edge jitter error (maybe fixed) : 0
Atom jitter error (maybe fixed) : 0
Drift error (maybe fixed) : 0
Dropped bytes error (maybe fixed) : 0
Duplicated bytes error (maybe fixed) : 0
Inconsistency in error sectors : 0
Track 06
Track gain : -5.15 dB
Peak : 0.977203
CRC32 hash (test run) : DCC6037C
CRC32 hash : DCC6037C
CRC32 hash (skip zero) : 3E1DE89C
AccurateRip signature : 1F9A5FB0
->Accurately ripped! (confidence 1)
Statistics
Read error : 0
Skipped (treated as error) : 0
Edge jitter error (maybe fixed) : 0
Atom jitter error (maybe fixed) : 0
Drift error (maybe fixed) : 0
Dropped bytes error (maybe fixed) : 0
Duplicated bytes error (maybe fixed) : 0
Inconsistency in error sectors : 0
Track 07
Track gain : -2.79 dB
Peak : 0.977203
CRC32 hash (test run) : 2252D02E
CRC32 hash : 2252D02E
CRC32 hash (skip zero) : 27F5DE8E
AccurateRip signature : 45688055
->Accurately ripped! (confidence 1)
Statistics
Read error : 0
Skipped (treated as error) : 0
Edge jitter error (maybe fixed) : 0
Atom jitter error (maybe fixed) : 0
Drift error (maybe fixed) : 0
Dropped bytes error (maybe fixed) : 0
Duplicated bytes error (maybe fixed) : 0
Inconsistency in error sectors : 0
Track 08
Track gain : -4.10 dB
Peak : 0.977203
CRC32 hash (test run) : A09E0970
CRC32 hash : A09E0970
CRC32 hash (skip zero) : 80B2C500
AccurateRip signature : 8DC0AADC
->Accurately ripped! (confidence 1)
Statistics
Read error : 0
Skipped (treated as error) : 0
Edge jitter error (maybe fixed) : 0
Atom jitter error (maybe fixed) : 0
Drift error (maybe fixed) : 0
Dropped bytes error (maybe fixed) : 0
Duplicated bytes error (maybe fixed) : 0
Inconsistency in error sectors : 0
Track 09
Track gain : -4.40 dB
Peak : 0.977203
CRC32 hash (test run) : 9161AC7A
CRC32 hash : 9161AC7A
CRC32 hash (skip zero) : B9A7C340
AccurateRip signature : 8A5AE218
->Accurately ripped! (confidence 1)
Statistics
Read error : 0
Skipped (treated as error) : 0
Edge jitter error (maybe fixed) : 0
Atom jitter error (maybe fixed) : 0
Drift error (maybe fixed) : 0
Dropped bytes error (maybe fixed) : 0
Duplicated bytes error (maybe fixed) : 0
Inconsistency in error sectors : 0
Track 10
Track gain : -5.43 dB
Peak : 0.977203
CRC32 hash (test run) : 9A2D89A3
CRC32 hash : 9A2D89A3
CRC32 hash (skip zero) : C2410E5B
AccurateRip signature : 4941B0D9
->Accurately ripped! (confidence 1)
Statistics
Read error : 0
Skipped (treated as error) : 0
Edge jitter error (maybe fixed) : 0
Atom jitter error (maybe fixed) : 0
Drift error (maybe fixed) : 0
Dropped bytes error (maybe fixed) : 0
Duplicated bytes error (maybe fixed) : 0
Inconsistency in error sectors : 0
Track 11
Track gain : -6.97 dB
Peak : 0.977203
CRC32 hash (test run) : AA31EA3D
CRC32 hash : AA31EA3D
CRC32 hash (skip zero) : B899F388
AccurateRip signature : 81483F5C
->Accurately ripped! (confidence 1)
Statistics
Read error : 0
Skipped (treated as error) : 0
Edge jitter error (maybe fixed) : 0
Atom jitter error (maybe fixed) : 0
Drift error (maybe fixed) : 0
Dropped bytes error (maybe fixed) : 0
Duplicated bytes error (maybe fixed) : 0
Inconsistency in error sectors : 0
Track 12
Track gain : -7.11 dB
Peak : 0.977203
CRC32 hash (test run) : 0AF0B953
CRC32 hash : 0AF0B953
CRC32 hash (skip zero) : 243B8C03
AccurateRip signature : BBC479F8
->Accurately ripped! (confidence 1)
Statistics
Read error : 0
Skipped (treated as error) : 0
Edge jitter error (maybe fixed) : 0
Atom jitter error (maybe fixed) : 0
Drift error (maybe fixed) : 0
Dropped bytes error (maybe fixed) : 0
Duplicated bytes error (maybe fixed) : 0
Inconsistency in error sectors : 0
Track 13
Track gain : -5.53 dB
Peak : 0.977142
CRC32 hash (test run) : EFA4989F
CRC32 hash : EFA4989F
CRC32 hash (skip zero) : E9B20FC4
AccurateRip signature : 6CB5D445
->Accurately ripped! (confidence 1)
Statistics
Read error : 0
Skipped (treated as error) : 0
Edge jitter error (maybe fixed) : 0
Atom jitter error (maybe fixed) : 0
Drift error (maybe fixed) : 0
Dropped bytes error (maybe fixed) : 0
Duplicated bytes error (maybe fixed) : 0
Inconsistency in error sectors : 0
Track 14
Track gain : -4.94 dB
Peak : 0.977203
CRC32 hash (test run) : 5687904D
CRC32 hash : 5687904D
CRC32 hash (skip zero) : CE91013E
AccurateRip signature : B3BBBE99
->Accurately ripped! (confidence 1)
Statistics
Read error : 0
Skipped (treated as error) : 0
Edge jitter error (maybe fixed) : 0
Atom jitter error (maybe fixed) : 0
Drift error (maybe fixed) : 0
Dropped bytes error (maybe fixed) : 0
Duplicated bytes error (maybe fixed) : 0
Inconsistency in error sectors : 0
No errors occurred
End of status report
 
Audiochecker
AUDIOCHECKER v2.0 beta (build 457) - by Dester - opdester@freemail.hu
~~~~~~~~~~~~~~~~~~~~~~~~~~~~~~~~~~
-=== DO NOT EDIT THIS FILE! ===-
Path: ...\Disc 1
1 -=- CD1.flac -=- CDDA (99%)
234762612
 
Disc 2
Трэклист:
1. As Vitrines
2. Iracema Voou
3. Assentamento
4. Como se Fosse a Primavera
5. Cotidiano
6. Bancarrota Blues
7. Xote de Navegação
8. Construção
9. Sonhos Sonhos São
10. Carioca
11. Capital do Samba/chão de Esmeraldas
12. Futuros Amantes
13. Vai Passar
14. João e Maria
 
X Lossless Decoder Log
X Lossless Decoder version 20090320 (105.1)
XLD extraction logfile from 2009-04-21 19:45:11 -0300
/ CD2
Used drive : MATSHITA DVD-R UJ-875 (revision DA09)
Use cdparanoia mode : YES (CDParanoia III 10.2 engine)
Disable audio cache : OK for the drive with cache less than 2750KB
Make use of C2 pointers : NO
Read offset correction : 102
Max retry count : 100
TOC of the extracted CD
Track | Start | Length | Start sector | End sector
---------------------------------------------------------
1 | 00:00:00 | 03:01:25 | 0 | 13599
2 | 03:01:25 | 02:55:15 | 13600 | 26739
3 | 05:56:40 | 03:25:50 | 26740 | 42164
4 | 09:22:15 | 02:07:67 | 42165 | 51756
5 | 11:30:07 | 02:32:65 | 51757 | 63221
6 | 14:02:72 | 05:16:68 | 63222 | 86989
7 | 19:19:65 | 02:33:17 | 86990 | 98481
8 | 21:53:07 | 04:13:13 | 98482 | 117469
9 | 26:06:20 | 03:05:72 | 117470 | 131416
10 | 29:12:17 | 02:31:50 | 131417 | 142791
11 | 31:43:67 | 04:19:18 | 142792 | 162234
12 | 36:03:10 | 03:07:57 | 162235 | 176316
13 | 39:10:67 | 03:01:25 | 176317 | 189916
14 | 42:12:17 | 03:05:35 | 189917 | 203826
All Tracks
Filename : /Chico Ao Vivo/CD2/CD2.flac
Album gain : -6.24 dB
Peak : 1.000000
CRC32 hash (test run) : 85EFB0E0
CRC32 hash : 85EFB0E0
CRC32 hash (skip zero) : A4F9BA27
Statistics
Read error : 0
Skipped (treated as error) : 0
Edge jitter error (maybe fixed) : 0
Atom jitter error (maybe fixed) : 0
Drift error (maybe fixed) : 0
Dropped bytes error (maybe fixed) : 0
Duplicated bytes error (maybe fixed) : 0
Inconsistency in error sectors : 0
Track 01
Track gain : -3.87 dB
Peak : 0.853516
CRC32 hash (test run) : 352C7EDC
CRC32 hash : 352C7EDC
CRC32 hash (skip zero) : 24388298
AccurateRip signature : E8D29C45
->Accurately ripped! (confidence 1)
Statistics
Read error : 0
Skipped (treated as error) : 0
Edge jitter error (maybe fixed) : 0
Atom jitter error (maybe fixed) : 0
Drift error (maybe fixed) : 0
Dropped bytes error (maybe fixed) : 0
Duplicated bytes error (maybe fixed) : 0
Inconsistency in error sectors : 0
Track 02
Track gain : -6.05 dB
Peak : 0.924835
CRC32 hash (test run) : 48CBDF63
CRC32 hash : 48CBDF63
CRC32 hash (skip zero) : DFDED155
AccurateRip signature : 8AA168F4
->Accurately ripped! (confidence 1)
Statistics
Read error : 0
Skipped (treated as error) : 0
Edge jitter error (maybe fixed) : 0
Atom jitter error (maybe fixed) : 0
Drift error (maybe fixed) : 0
Dropped bytes error (maybe fixed) : 0
Duplicated bytes error (maybe fixed) : 0
Inconsistency in error sectors : 0
Track 03
Track gain : -6.28 dB
Peak : 1.000000
CRC32 hash (test run) : D374332F
CRC32 hash : D374332F
CRC32 hash (skip zero) : 07A5BC64
AccurateRip signature : 38CBA488
->Accurately ripped! (confidence 1)
Statistics
Read error : 0
Skipped (treated as error) : 0
Edge jitter error (maybe fixed) : 0
Atom jitter error (maybe fixed) : 0
Drift error (maybe fixed) : 0
Dropped bytes error (maybe fixed) : 0
Duplicated bytes error (maybe fixed) : 0
Inconsistency in error sectors : 0
Track 04
Track gain : -6.28 dB
Peak : 0.999969
CRC32 hash (test run) : 91B1531A
CRC32 hash : 91B1531A
CRC32 hash (skip zero) : 8DF0693E
AccurateRip signature : E074C3ED
->Accurately ripped! (confidence 1)
Statistics
Read error : 0
Skipped (treated as error) : 0
Edge jitter error (maybe fixed) : 0
Atom jitter error (maybe fixed) : 0
Drift error (maybe fixed) : 0
Dropped bytes error (maybe fixed) : 0
Duplicated bytes error (maybe fixed) : 0
Inconsistency in error sectors : 0
Track 05
Track gain : -5.85 dB
Peak : 1.000000
CRC32 hash (test run) : B1AF504C
CRC32 hash : B1AF504C
CRC32 hash (skip zero) : DAB290A0
AccurateRip signature : 07CC2C4D
->Accurately ripped! (confidence 1)
Statistics
Read error : 0
Skipped (treated as error) : 0
Edge jitter error (maybe fixed) : 0
Atom jitter error (maybe fixed) : 0
Drift error (maybe fixed) : 0
Dropped bytes error (maybe fixed) : 0
Duplicated bytes error (maybe fixed) : 0
Inconsistency in error sectors : 0
Track 06
Track gain : -6.76 dB
Peak : 1.000000
CRC32 hash (test run) : 5F72616F
CRC32 hash : 5F72616F
CRC32 hash (skip zero) : 3193B273
AccurateRip signature : AA6A3CEB
->Accurately ripped! (confidence 1)
Statistics
Read error : 0
Skipped (treated as error) : 0
Edge jitter error (maybe fixed) : 0
Atom jitter error (maybe fixed) : 0
Drift error (maybe fixed) : 0
Dropped bytes error (maybe fixed) : 0
Duplicated bytes error (maybe fixed) : 0
Inconsistency in error sectors : 0
Track 07
Track gain : -5.44 dB
Peak : 1.000000
CRC32 hash (test run) : E6DA36BA
CRC32 hash : E6DA36BA
CRC32 hash (skip zero) : 0D1ADB55
AccurateRip signature : 208E8F71
->Accurately ripped! (confidence 1)
Statistics
Read error : 0
Skipped (treated as error) : 0
Edge jitter error (maybe fixed) : 0
Atom jitter error (maybe fixed) : 0
Drift error (maybe fixed) : 0
Dropped bytes error (maybe fixed) : 0
Duplicated bytes error (maybe fixed) : 0
Inconsistency in error sectors : 0
Track 08
Track gain : -4.29 dB
Peak : 1.000000
CRC32 hash (test run) : 934D0AAF
CRC32 hash : 934D0AAF
CRC32 hash (skip zero) : A39F4F99
AccurateRip signature : F0B57799
->Accurately ripped! (confidence 1)
Statistics
Read error : 0
Skipped (treated as error) : 0
Edge jitter error (maybe fixed) : 0
Atom jitter error (maybe fixed) : 0
Drift error (maybe fixed) : 0
Dropped bytes error (maybe fixed) : 0
Duplicated bytes error (maybe fixed) : 0
Inconsistency in error sectors : 0
Track 09
Track gain : -4.85 dB
Peak : 1.000000
CRC32 hash (test run) : 8D8A944D
CRC32 hash : 8D8A944D
CRC32 hash (skip zero) : A9E10B7E
AccurateRip signature : E4627226
->Accurately ripped! (confidence 1)
Statistics
Read error : 0
Skipped (treated as error) : 0
Edge jitter error (maybe fixed) : 0
Atom jitter error (maybe fixed) : 0
Drift error (maybe fixed) : 0
Dropped bytes error (maybe fixed) : 0
Duplicated bytes error (maybe fixed) : 0
Inconsistency in error sectors : 0
Track 10
Track gain : -6.06 dB
Peak : 1.000000
CRC32 hash (test run) : F72CDBDF
CRC32 hash : F72CDBDF
CRC32 hash (skip zero) : 5531B328
AccurateRip signature : 0B379466
->Accurately ripped! (confidence 1)
Statistics
Read error : 0
Skipped (treated as error) : 0
Edge jitter error (maybe fixed) : 0
Atom jitter error (maybe fixed) : 0
Drift error (maybe fixed) : 0
Dropped bytes error (maybe fixed) : 0
Duplicated bytes error (maybe fixed) : 0
Inconsistency in error sectors : 0
Track 11
Track gain : -7.15 dB
Peak : 1.000000
CRC32 hash (test run) : 97F2ECA3
CRC32 hash : 97F2ECA3
CRC32 hash (skip zero) : 2C08B0FC
AccurateRip signature : 825269F7
->Accurately ripped! (confidence 1)
Statistics
Read error : 0
Skipped (treated as error) : 0
Edge jitter error (maybe fixed) : 0
Atom jitter error (maybe fixed) : 0
Drift error (maybe fixed) : 0
Dropped bytes error (maybe fixed) : 0
Duplicated bytes error (maybe fixed) : 0
Inconsistency in error sectors : 0
Track 12
Track gain : -7.10 dB
Peak : 1.000000
CRC32 hash (test run) : ED713D25
CRC32 hash : ED713D25
CRC32 hash (skip zero) : 9A166D6F
AccurateRip signature : BA19E323
->Accurately ripped! (confidence 1)
Statistics
Read error : 0
Skipped (treated as error) : 0
Edge jitter error (maybe fixed) : 0
Atom jitter error (maybe fixed) : 0
Drift error (maybe fixed) : 0
Dropped bytes error (maybe fixed) : 0
Duplicated bytes error (maybe fixed) : 0
Inconsistency in error sectors : 0
Track 13
Track gain : -5.89 dB
Peak : 1.000000
CRC32 hash (test run) : 8F23EA3E
CRC32 hash : 8F23EA3E
CRC32 hash (skip zero) : C7345EC2
AccurateRip signature : ABF57528
->Accurately ripped! (confidence 1)
Statistics
Read error : 0
Skipped (treated as error) : 0
Edge jitter error (maybe fixed) : 0
Atom jitter error (maybe fixed) : 0
Drift error (maybe fixed) : 0
Dropped bytes error (maybe fixed) : 0
Duplicated bytes error (maybe fixed) : 0
Inconsistency in error sectors : 0
Track 14
Track gain : -6.19 dB
Peak : 1.000000
CRC32 hash (test run) : E330DAC5
CRC32 hash : E330DAC5
CRC32 hash (skip zero) : 9524366D
AccurateRip signature : DEEB0454
->Accurately ripped! (confidence 1)
Statistics
Read error : 0
Skipped (treated as error) : 0
Edge jitter error (maybe fixed) : 0
Atom jitter error (maybe fixed) : 0
Drift error (maybe fixed) : 0
Dropped bytes error (maybe fixed) : 0
Duplicated bytes error (maybe fixed) : 0
Inconsistency in error sectors : 0
No errors occurred
End of status report
 
Audiochecker
AUDIOCHECKER v2.0 beta (build 457) - by Dester - opdester@freemail.hu
~~~~~~~~~~~~~~~~~~~~~~~~~~~~~~~~~~
-=== DO NOT EDIT THIS FILE! ===-
Path: ...\Disc 2
1 -=- CD2.flac -=- CDDA (100%)
266518740
Download available for power users only.
10:49
200
Нет комментариев. Ваш будет первым!