Поиск

(Afro-beat) Tony Allen - Black Voices - 1999, Secret Agent - 2009, FLAC (tracks+.cue, image+.cue), lossless

Треклист:
Tony Allen - "Black Voices" (1999), "Secret Agent" (2009)
Жанр: Afrobeat
Год выпуска диска: 1999, 2009
Производитель диска: France, Europe
Аудио кодек: FLAC
Тип рипа: tracks+.cue, image+.cue
Битрейт аудио: lossless
Продолжительность: 51:58 / 54:41
 
1999 - Black Voices
Жанр: Afrobeat
Год выпуска диска: 1999
Производитель диска: Comet Records (Франция)
Аудио кодек: FLAC
Тип рипа: tracks+.cue
Битрейт аудио: lossless
Продолжительность: 51 мин 58 сек
Трэклист:
01. Asiko {7:56}
02. Get Together {5:55}
03. Black Voices (we are what we play mix) {7:35}
04. The Same Blood {8:12}
05. Asiko: In A Silent Mix {9:29}
06. Black Voices {5:49}
07. Ariya (PsychejujuMix) {7:02}
 
лог EAC
Exact Audio Copy V0.99 prebeta 4 from 23. January 2008
EAC extraction logfile from 16. April 2008, 22:19
Tony Allen / Black Voices
Used drive : MATSHITADVD+-RW UJ-857G Adapter: 1 ID: 0
Read mode : Secure
Utilize accurate stream : Yes
Defeat audio cache : Yes
Make use of C2 pointers : No
Read offset correction : 102
Overread into Lead-In and Lead-Out : No
Fill up missing offset samples with silence : Yes
Delete leading and trailing silent blocks : No
Null samples used in CRC calculations : Yes
Used interface : Native Win32 interface for Win NT & 2000
Gap handling : Appended to previous track
Used output format : User Defined Encoder
Selected bitrate : 128 kBit/s
Quality : High
Add ID3 tag : No
Command line compressor : C:\Program Files\Exact Audio Copy\Flac\flac.exe
Additional command line options : -V -8 -T "artist=%a" -T "title=%t" -T "album=%g" -T "date=%y" -T "tracknumber=%n" -T "genre=%m" %s
TOC of the extracted CD
Track | Start | Length | Start sector | End sector
---------------------------------------------------------
1 | 0:00.00 | 7:55.39 | 0 | 35663
2 | 7:55.39 | 5:55.25 | 35664 | 62313
3 | 13:50.64 | 7:34.62 | 62314 | 96425
4 | 21:25.51 | 8:12.10 | 96426 | 133335
5 | 29:37.61 | 9:29.28 | 133336 | 176038
6 | 39:07.14 | 5:49.25 | 176039 | 202238
7 | 44:56.39 | 7:02.05 | 202239 | 233893
Track 1
Filename C:\Users\Mark\Downloads\Tony Allen\Black Voices\01 - Asiko.wav
Pre-gap length 0:00:02.00
Peak level 99.2 %
Track quality 99.9 %
Test CRC 1B96DF3B
Copy CRC 1B96DF3B
Accurately ripped (confidence 1) [B35C2650]
Copy OK
Track 2
Filename C:\Users\Mark\Downloads\Tony Allen\Black Voices\02 - Get Together.wav
Peak level 99.2 %
Track quality 99.9 %
Test CRC 3E33F2CD
Copy CRC 3E33F2CD
Accurately ripped (confidence 1) [8279BDE4]
Copy OK
Track 3
Filename C:\Users\Mark\Downloads\Tony Allen\Black Voices\03 - Black Voices (we are what we play mix).wav
Peak level 99.2 %
Track quality 100.0 %
Test CRC B51B1909
Copy CRC B51B1909
Accurately ripped (confidence 1) [16EAC736]
Copy OK
Track 4
Filename C:\Users\Mark\Downloads\Tony Allen\Black Voices\04 - The Same Blood.wav
Peak level 99.2 %
Track quality 99.9 %
Test CRC 867E7243
Copy CRC 867E7243
Accurately ripped (confidence 1) [C0ED3478]
Copy OK
Track 5
Filename C:\Users\Mark\Downloads\Tony Allen\Black Voices\05 - Asiko- In A Silent Mix.wav
Peak level 99.2 %
Track quality 100.0 %
Test CRC 5FBC517C
Copy CRC 5FBC517C
Accurately ripped (confidence 1) [EF17463A]
Copy OK
Track 6
Filename C:\Users\Mark\Downloads\Tony Allen\Black Voices\06 - Black Voices.wav
Peak level 99.2 %
Track quality 99.9 %
Test CRC 8BA5793E
Copy CRC 8BA5793E
Accurately ripped (confidence 1) [948EFA32]
Copy OK
Track 7
Filename C:\Users\Mark\Downloads\Tony Allen\Black Voices\07 - Ariya (PsychejujuMix).wav
Peak level 99.2 %
Track quality 99.9 %
Test CRC 9B8718C6
Copy CRC 9B8718C6
Accurately ripped (confidence 1) [05D55F6F]
Copy OK
All tracks accurately ripped
No errors occurred
End of status report
 
лог Audiocheker
AUDIOCHECKER v2.0 beta (build 457) - by Dester - opdester@freemail.hu
~~~~~~~~~~~~~~~~~~~~~~~~~~~~~~~~~~
Started at: вторник, 12. 01. 2010. - 23:10.04
7 files found
1 -===- C:\- раздаю -\Tony_Allen_-_2_albums_1999-2009_[rutracker.org]\1999 - Black Voices\01 - Asiko.flac
Extracted successfully
Conclusion: this track is CDDA with probability 100%
Tempfile successfully deleted.
2 -===- C:\- раздаю -\Tony_Allen_-_2_albums_1999-2009_[rutracker.org]\1999 - Black Voices\02 - Get Together.flac
Extracted successfully
Conclusion: this track is CDDA with probability 100%
Tempfile successfully deleted.
3 -===- C:\- раздаю -\Tony_Allen_-_2_albums_1999-2009_[rutracker.org]\1999 - Black Voices\03 - Black Voices (we are what we play mix).flac
Extracted successfully
Conclusion: this track is CDDA with probability 100%
Tempfile successfully deleted.
4 -===- C:\- раздаю -\Tony_Allen_-_2_albums_1999-2009_[rutracker.org]\1999 - Black Voices\04 - The Same Blood.flac
Extracted successfully
Conclusion: this track is CDDA with probability 99%
Tempfile successfully deleted.
5 -===- C:\- раздаю -\Tony_Allen_-_2_albums_1999-2009_[rutracker.org]\1999 - Black Voices\05 - Asiko- In A Silent Mix.flac
Extracted successfully
Conclusion: this track is CDDA with probability 100%
Tempfile successfully deleted.
6 -===- C:\- раздаю -\Tony_Allen_-_2_albums_1999-2009_[rutracker.org]\1999 - Black Voices\06 - Black Voices.flac
Extracted successfully
Conclusion: this track is CDDA with probability 100%
Tempfile successfully deleted.
7 -===- C:\- раздаю -\Tony_Allen_-_2_albums_1999-2009_[rutracker.org]\1999 - Black Voices\07 - Ariya (PsychejujuMix).flac
Extracted successfully
Conclusion: this track is CDDA with probability 100%
Tempfile successfully deleted.
This album (1999 - Black Voices) seems to be CDDA with probability 99,86%
Finished at: вторник, 12. 01. 2010. - 23:20.12 (operation time: 0:10.07)
Доп. информация: Discogs | Catalog#: COMET 005
 
2009 - Secret Agent
Жанр: Afrobeat
Год выпуска диска: 2009
Производитель диска: World Circuit (Europe)
Аудио кодек: FLAC
Тип рипа: image+.cue
Битрейт аудио: lossless
Продолжительность: 54 мин 41 сек
Трэклист:
01. Secret Agent {5:20}
02. Ijo {5:13}
03. Switch {4:49}
04. Celebrate {7:54}
05. Ayenlo {4:57}
06. Busybody {4:34}
07. Pariwo {5:53}
08. Nina Lowo {5:44}
09. Atuwaba {0:50}
10. Alutere {3:44}
11. Elewon Po {5:44}
 
лог XLD
X Lossless Decoder version 20090910 (109.7)
XLD extraction logfile from 2009-09-13 22:05:24 +0200
Tony Allen / Secret Agent
Used drive : MATSHITA DVD-R UJ-867 (revision HB01)
Use cdparanoia mode : YES (CDParanoia III 10.2 engine)
Disable audio cache : OK for the drive with cache less than 2750KB
Make use of C2 pointers : NO
Read offset correction : 102
Max retry count : 100
TOC of the extracted CD
Track | Start | Length | Start sector | End sector
---------------------------------------------------------
1 | 00:00:00 | 05:20:37 | 0 | 24036
2 | 05:20:37 | 05:13:35 | 24037 | 47546
3 | 10:33:72 | 04:49:24 | 47547 | 69245
4 | 15:23:21 | 07:53:38 | 69246 | 104758
5 | 23:16:59 | 04:57:19 | 104759 | 127052
6 | 28:14:03 | 04:34:03 | 127053 | 147605
7 | 32:48:06 | 05:52:61 | 147606 | 174066
8 | 38:40:67 | 05:43:47 | 174067 | 199838
9 | 44:24:39 | 00:49:38 | 199839 | 203551
10 | 45:14:02 | 03:43:49 | 203552 | 220325
11 | 48:57:51 | 05:43:61 | 220326 | 246111
All Tracks
Album gain : -5.86 dB
Peak : 0.890930
Track 01
Filename : /Users/jasperbrandt/Music/XLD/01 Tony Allen - Secret Agent.flac
/Users/jasperbrandt/Music/XLD/01 Tony Allen - Secret Agent.mp3
Track gain : -6.44 dB
Peak : 0.890900
CRC32 hash (test run) : 307F0BE4
CRC32 hash : 307F0BE4
CRC32 hash (skip zero) : 0EBC1CCC
AccurateRip signature : BDD8789A
->Accurately ripped! (confidence 4)
Statistics
Read error : 0
Skipped (treated as error) : 0
Edge jitter error (maybe fixed) : 0
Atom jitter error (maybe fixed) : 0
Drift error (maybe fixed) : 0
Dropped bytes error (maybe fixed) : 0
Duplicated bytes error (maybe fixed) : 0
Inconsistency in error sectors : 0
Track 02
Filename : /Users/jasperbrandt/Music/XLD/02 Tony Allen - Ijo.flac
/Users/jasperbrandt/Music/XLD/02 Tony Allen - Ijo.mp3
Track gain : -6.38 dB
Peak : 0.890900
CRC32 hash (test run) : D0BD9AD0
CRC32 hash : D0BD9AD0
CRC32 hash (skip zero) : 4275B4A2
AccurateRip signature : 0DCD8DA4
->Accurately ripped! (confidence 5)
Statistics
Read error : 0
Skipped (treated as error) : 0
Edge jitter error (maybe fixed) : 0
Atom jitter error (maybe fixed) : 0
Drift error (maybe fixed) : 0
Dropped bytes error (maybe fixed) : 0
Duplicated bytes error (maybe fixed) : 0
Inconsistency in error sectors : 0
Track 03
Filename : /Users/jasperbrandt/Music/XLD/03 Tony Allen - Switch.flac
/Users/jasperbrandt/Music/XLD/03 Tony Allen - Switch.mp3
Track gain : -4.03 dB
Peak : 0.890869
CRC32 hash (test run) : 096CD08A
CRC32 hash : 096CD08A
CRC32 hash (skip zero) : 13EC9C6C
AccurateRip signature : 724C727E
->Accurately ripped! (confidence 4)
Statistics
Read error : 0
Skipped (treated as error) : 0
Edge jitter error (maybe fixed) : 0
Atom jitter error (maybe fixed) : 0
Drift error (maybe fixed) : 0
Dropped bytes error (maybe fixed) : 0
Duplicated bytes error (maybe fixed) : 0
Inconsistency in error sectors : 0
Track 04
Filename : /Users/jasperbrandt/Music/XLD/04 Tony Allen - Celebrate.flac
/Users/jasperbrandt/Music/XLD/04 Tony Allen - Celebrate.mp3
Track gain : -4.63 dB
Peak : 0.890869
CRC32 hash (test run) : 4F691400
CRC32 hash : 4F691400
CRC32 hash (skip zero) : 8D3013AC
AccurateRip signature : A0E3CE5B
->Accurately ripped! (confidence 4)
Statistics
Read error : 0
Skipped (treated as error) : 0
Edge jitter error (maybe fixed) : 0
Atom jitter error (maybe fixed) : 0
Drift error (maybe fixed) : 0
Dropped bytes error (maybe fixed) : 0
Duplicated bytes error (maybe fixed) : 0
Inconsistency in error sectors : 0
Track 05
Filename : /Users/jasperbrandt/Music/XLD/05 Tony Allen - Ayenlo.flac
/Users/jasperbrandt/Music/XLD/05 Tony Allen - Ayenlo.mp3
Track gain : -5.08 dB
Peak : 0.890930
CRC32 hash (test run) : 1C300A36
CRC32 hash : 1C300A36
CRC32 hash (skip zero) : 7C62C26D
AccurateRip signature : 45CA4C22
->Accurately ripped! (confidence 5)
Statistics
Read error : 0
Skipped (treated as error) : 0
Edge jitter error (maybe fixed) : 0
Atom jitter error (maybe fixed) : 0
Drift error (maybe fixed) : 0
Dropped bytes error (maybe fixed) : 0
Duplicated bytes error (maybe fixed) : 0
Inconsistency in error sectors : 0
Track 06
Filename : /Users/jasperbrandt/Music/XLD/06 Tony Allen - Busybody.flac
/Users/jasperbrandt/Music/XLD/06 Tony Allen - Busybody.mp3
Track gain : -5.19 dB
Peak : 0.890900
CRC32 hash (test run) : 8A167284
CRC32 hash : 8A167284
CRC32 hash (skip zero) : 5BFAA27D
AccurateRip signature : 17BFDAC8
->Accurately ripped! (confidence 5)
Statistics
Read error : 0
Skipped (treated as error) : 0
Edge jitter error (maybe fixed) : 0
Atom jitter error (maybe fixed) : 0
Drift error (maybe fixed) : 0
Dropped bytes error (maybe fixed) : 0
Duplicated bytes error (maybe fixed) : 0
Inconsistency in error sectors : 0
Track 07
Filename : /Users/jasperbrandt/Music/XLD/07 Tony Allen - Pariwo.flac
/Users/jasperbrandt/Music/XLD/07 Tony Allen - Pariwo.mp3
Track gain : -6.19 dB
Peak : 0.890900
CRC32 hash (test run) : D6EF842A
CRC32 hash : D6EF842A
CRC32 hash (skip zero) : AF90E57B
AccurateRip signature : 8DA69452
->Accurately ripped! (confidence 4)
Statistics
Read error : 0
Skipped (treated as error) : 0
Edge jitter error (maybe fixed) : 0
Atom jitter error (maybe fixed) : 0
Drift error (maybe fixed) : 0
Dropped bytes error (maybe fixed) : 0
Duplicated bytes error (maybe fixed) : 0
Inconsistency in error sectors : 0
Track 08
Filename : /Users/jasperbrandt/Music/XLD/08 Tony Allen - Nina Lowo.flac
/Users/jasperbrandt/Music/XLD/08 Tony Allen - Nina Lowo.mp3
Track gain : -7.04 dB
Peak : 0.890930
CRC32 hash (test run) : C23B6BEB
CRC32 hash : C23B6BEB
CRC32 hash (skip zero) : FB1677EE
AccurateRip signature : 3F04EFAE
->Accurately ripped! (confidence 5)
Statistics
Read error : 0
Skipped (treated as error) : 0
Edge jitter error (maybe fixed) : 0
Atom jitter error (maybe fixed) : 0
Drift error (maybe fixed) : 0
Dropped bytes error (maybe fixed) : 0
Duplicated bytes error (maybe fixed) : 0
Inconsistency in error sectors : 0
Track 09
Filename : /Users/jasperbrandt/Music/XLD/09 Tony Allen - Atuwaba.flac
/Users/jasperbrandt/Music/XLD/09 Tony Allen - Atuwaba.mp3
Track gain : -0.49 dB
Peak : 0.476807
CRC32 hash (test run) : ED2CB634
CRC32 hash : ED2CB634
CRC32 hash (skip zero) : 60F6F55B
AccurateRip signature : 8EB298C9
->Accurately ripped! (confidence 5)
Statistics
Read error : 0
Skipped (treated as error) : 0
Edge jitter error (maybe fixed) : 0
Atom jitter error (maybe fixed) : 0
Drift error (maybe fixed) : 0
Dropped bytes error (maybe fixed) : 0
Duplicated bytes error (maybe fixed) : 0
Inconsistency in error sectors : 0
Track 10
Filename : /Users/jasperbrandt/Music/XLD/10 Tony Allen - Alutere.flac
/Users/jasperbrandt/Music/XLD/10 Tony Allen - Alutere.mp3
Track gain : -4.89 dB
Peak : 0.890930
CRC32 hash (test run) : AE94F308
CRC32 hash : AE94F308
CRC32 hash (skip zero) : EC454FAC
AccurateRip signature : 5142B0A9
->Accurately ripped! (confidence 5)
Statistics
Read error : 0
Skipped (treated as error) : 0
Edge jitter error (maybe fixed) : 0
Atom jitter error (maybe fixed) : 0
Drift error (maybe fixed) : 0
Dropped bytes error (maybe fixed) : 0
Duplicated bytes error (maybe fixed) : 0
Inconsistency in error sectors : 0
Track 11
Filename : /Users/jasperbrandt/Music/XLD/11 Tony Allen - Elewon Po.flac
/Users/jasperbrandt/Music/XLD/11 Tony Allen - Elewon Po.mp3
Track gain : -6.32 dB
Peak : 0.890900
CRC32 hash (test run) : D858120D
CRC32 hash : D858120D
CRC32 hash (skip zero) : C804AC8B
AccurateRip signature : 292318B6
->Accurately ripped! (confidence 5)
Statistics
Read error : 0
Skipped (treated as error) : 0
Edge jitter error (maybe fixed) : 0
Atom jitter error (maybe fixed) : 0
Drift error (maybe fixed) : 0
Dropped bytes error (maybe fixed) : 0
Duplicated bytes error (maybe fixed) : 0
Inconsistency in error sectors : 0
No errors occurred
End of status report
 
лог Audiocheker
AUDIOCHECKER v2.0 beta (build 457) - by Dester - opdester@freemail.hu
~~~~~~~~~~~~~~~~~~~~~~~~~~~~~~~~~~
Started at: среда, 13. 01. 2010. - 9:58.33
1 file found
1 -===- C:\- раздаю -\Tony_Allen_-_2_albums_1999-2009_[rutracker.org]\2009 - Secret Agent\CDimage.flac
Extracted successfully
Conclusion: this track is CDDA with probability 100%
Tempfile successfully deleted.
Finished at: среда, 13. 01. 2010. - 10:07.22 (operation time: 0:08.48)
Доп. информация: Discogs | Catalog#: WCD082
Альбом был скачан в потрековом виде, но в cue-файле была разметка как для альбома одним имиджем. В результате распаковки в wav и последующей склейки в один имидж (все действия производились Foobar-ом) был получен имидж, который проходит проверку утилитой arcue по базе аккуратрип
 
Accuraterip
Checking AccurateRip database
Track Ripping Status [Disc ID: 0017ddf0-a70cd10b]
1 Accurately Ripped (confidence 10) [bdd8789a]
2 Accurately Ripped (confidence 11) [0dcd8da4]
3 Accurately Ripped (confidence 10) [724c727e]
4 Accurately Ripped (confidence 10) [a0e3ce5b]
5 Accurately Ripped (confidence 11) [45ca4c22]
6 Accurately Ripped (confidence 11) [17bfdac8]
7 Accurately Ripped (confidence 10) [8da69452]
8 Accurately Ripped (confidence 11) [3f04efae]
9 Accurately Ripped (confidence 11) [8eb298c9]
10 Accurately Ripped (confidence 11) [5142b0a9]
11 Accurately Ripped (confidence 11) [292318b6]
_______________________
All Tracks Accurately Ripped.
Доп. информация: Источник - The Pirate Bay (релизёр cenkota)
По всем вопросам пишите личное сообщение пользователю M0p94ok.
10:49
214
Нет комментариев. Ваш будет первым!