Поиск

(Post-Bop / Fusion) Anne Drummond - Like Water - 2009, FLAC (tracks+.cue), lossless

(Post-Bop / Fusion) Anne Drummond - Like Water - 2009, FLAC (tracks+.cue), lossless
Треклист:
Anne Drummond - Like Water
Жанр: Post-Bop / Fusion
Год выпуска : 2009
Лейбл: ObliqSound
Аудио кодек: FLAC
Тип рипа: tracks+.cue
Битрейт аудио: lossless
Продолжительность: 00:32:27
Рип: scopaz - What CD


01. Aquelas Coisas Todas (4:29)
02. Like Water (4:27)
03. Frevo (3:30)
04. Curumim (3:20)
05. Lazy Afternoon (4:15)
06. Afoxamba (3:57)
07. Bossa for Copacabana (4:22)
08. Spring (4:07)

 
EAC
Exact Audio Copy V0.99 prebeta 5 from 4. May 2009
EAC extraction logfile from 6. January 2010, 20:39
Anne Drummond / Like Water
Used drive : TSSTcorpDVD+-RW TS-T633A Adapter: 2 ID: 0
Read mode : Secure
Utilize accurate stream : Yes
Defeat audio cache : Yes
Make use of C2 pointers : No
Read offset correction : 6
Overread into Lead-In and Lead-Out : No
Fill up missing offset samples with silence : Yes
Delete leading and trailing silent blocks : No
Null samples used in CRC calculations : No
Used interface : Native Win32 interface for Win NT & 2000
Gap handling : Appended to previous track
Used output format : User Defined Encoder
Selected bitrate : 768 kBit/s
Quality : High
Add ID3 tag : No
Command line compressor : C:\Program Files\Exact Audio Copy\FLAC\FLAC.EXE
Additional command line options : -6 -V -T "ARTIST=%a" -T "TITLE=%t" -T "ALBUM=%g" -T "DATE=%y" -T "TRACKNUMBER=%n" -T "GENRE=%m" -T "COMMENT=%e" %s -o %d
TOC of the extracted CD
Track | Start | Length | Start sector | End sector
---------------------------------------------------------
1 | 0:00.00 | 4:29.23 | 0 | 20197
2 | 4:29.23 | 4:27.16 | 20198 | 40238
3 | 8:56.39 | 3:30.06 | 40239 | 55994
4 | 12:26.45 | 3:20.18 | 55995 | 71012
5 | 15:46.63 | 4:15.17 | 71013 | 90154
6 | 20:02.05 | 3:57.30 | 90155 | 107959
7 | 23:59.35 | 4:21.45 | 107960 | 127579
8 | 28:21.05 | 4:06.52 | 127580 | 146081
Track 1
Filename C:\Downloads\01 - Anne Drummond - Like Water - Aquelas Coisas Todas.wav
Pre-gap length 0:00:02.00
Peak level 96.6 %
Track quality 99.9 %
Test CRC 6FA2CD3C
Copy CRC 6FA2CD3C
Copy OK
Track 2
Filename C:\Downloads\02 - Anne Drummond - Like Water - Like Water.wav
Pre-gap length 0:00:02.00
Peak level 96.6 %
Track quality 100.0 %
Test CRC 10E179DF
Copy CRC 10E179DF
Copy OK
Track 3
Filename C:\Downloads\03 - Anne Drummond - Like Water - Frevo.wav
Pre-gap length 0:00:02.00
Peak level 96.6 %
Track quality 100.0 %
Test CRC 6AB139F4
Copy CRC 6AB139F4
Copy OK
Track 4
Filename C:\Downloads\04 - Anne Drummond - Like Water - Curumim.wav
Pre-gap length 0:00:02.00
Peak level 96.6 %
Track quality 99.9 %
Test CRC 63E13DDD
Copy CRC 63E13DDD
Copy OK
Track 5
Filename C:\Downloads\05 - Anne Drummond - Like Water - Lazy Afternoon.wav
Pre-gap length 0:00:02.00
Peak level 96.6 %
Track quality 100.0 %
Test CRC 45B2FD16
Copy CRC 45B2FD16
Copy OK
Track 6
Filename C:\Downloads\06 - Anne Drummond - Like Water - Afoxamba.wav
Pre-gap length 0:00:02.00
Peak level 96.6 %
Track quality 100.0 %
Test CRC F49BDD34
Copy CRC F49BDD34
Copy OK
Track 7
Filename C:\Downloads\07 - Anne Drummond - Like Water - Bossa for Copacabana.wav
Pre-gap length 0:00:02.00
Peak level 96.6 %
Track quality 100.0 %
Test CRC F70A3EF0
Copy CRC F70A3EF0
Copy OK
Track 8
Filename C:\Downloads\08 - Anne Drummond - Like Water - Spring.wav
Pre-gap length 0:00:02.00
Peak level 96.6 %
Track quality 100.0 %
Test CRC 3CFF54F6
Copy CRC 3CFF54F6
Copy OK
No errors occurred
End of status report
 
CUE
REM GENRE Jazz
REM DATE 2009
REM DISCID 60079B08
REM COMMENT "ExactAudioCopy v0.99pb5"
PERFORMER "Anne Drummond"
TITLE "Like Water"
FILE "01 - Aquelas Coisas Todas.wav" WAVE
TRACK 01 AUDIO
TITLE "Aquelas Coisas Todas"
PERFORMER "Anne Drummond"
INDEX 01 00:00:00
TRACK 02 AUDIO
TITLE "Like Water"
PERFORMER "Anne Drummond"
INDEX 00 04:27:23
FILE "02 - Like Water.wav" WAVE
INDEX 01 00:00:00
TRACK 03 AUDIO
TITLE "Frevo"
PERFORMER "Anne Drummond"
INDEX 00 04:25:16
FILE "03 - Frevo.wav" WAVE
INDEX 01 00:00:00
TRACK 04 AUDIO
TITLE "Curumim"
PERFORMER "Anne Drummond"
INDEX 00 03:28:06
FILE "04 - Curumim.wav" WAVE
INDEX 01 00:00:00
TRACK 05 AUDIO
TITLE "Lazy Afternoon"
PERFORMER "Anne Drummond"
INDEX 00 03:18:18
FILE "05 - Lazy Afternoon.wav" WAVE
INDEX 01 00:00:00
TRACK 06 AUDIO
TITLE "Afoxamba"
PERFORMER "Anne Drummond"
INDEX 00 04:13:17
FILE "06 - Afoxamba.wav" WAVE
INDEX 01 00:00:00
TRACK 07 AUDIO
TITLE "Bossa for Copacabana"
PERFORMER "Anne Drummond"
INDEX 00 03:55:30
FILE "07 - Bossa for Copacabana.wav" WAVE
INDEX 01 00:00:00
TRACK 08 AUDIO
TITLE "Spring"
PERFORMER "Anne Drummond"
INDEX 00 04:19:45
FILE "08 - Spring.wav" WAVE
INDEX 01 00:00:00
 
Audiochecker
Started at: суббота, 09. 01. 2010. - 15:56.16
8 files found
1 -===- C:\Downloads\Music\Джаз\Anne Drummond - Like Water - 2009\01 - Anne Drummond - Like Water - Aquelas Coisas Todas.flac
Extracted successfully
Conclusion: This track looks like CDDA with probability 99%
Tempfile successfully deleted.
2 -===- C:\Downloads\Music\Джаз\Anne Drummond - Like Water - 2009\02 - Anne Drummond - Like Water - Like Water.flac
Extracted successfully
Conclusion: This track looks like CDDA with probability 100%
Tempfile successfully deleted.
3 -===- C:\Downloads\Music\Джаз\Anne Drummond - Like Water - 2009\03 - Anne Drummond - Like Water - Frevo.flac
Extracted successfully
Conclusion: This track looks like CDDA with probability 100%
Tempfile successfully deleted.
4 -===- C:\Downloads\Music\Джаз\Anne Drummond - Like Water - 2009\04 - Anne Drummond - Like Water - Curumim.flac
Extracted successfully
Conclusion: This track looks like CDDA with probability 76%
Tempfile successfully deleted.
5 -===- C:\Downloads\Music\Джаз\Anne Drummond - Like Water - 2009\05 - Anne Drummond - Like Water - Lazy Afternoon.flac
Extracted successfully
Conclusion: This track looks like CDDA with probability 100%
Tempfile successfully deleted.
6 -===- C:\Downloads\Music\Джаз\Anne Drummond - Like Water - 2009\06 - Anne Drummond - Like Water - Afoxamba.flac
Extracted successfully
Conclusion: This track looks like CDDA with probability 100%
Tempfile successfully deleted.
7 -===- C:\Downloads\Music\Джаз\Anne Drummond - Like Water - 2009\07 - Anne Drummond - Like Water - Bossa for Copacabana.flac
Extracted successfully
Conclusion: This track looks like CDDA with probability 100%
Tempfile successfully deleted.
8 -===- C:\Downloads\Music\Джаз\Anne Drummond - Like Water - 2009\08 - Anne Drummond - Like Water - Spring.flac
Extracted successfully
Conclusion: This track looks like CDDA with probability 100%
Tempfile successfully deleted.
Finished at: суббота, 09. 01. 2010. - 16:02.18 (operation time: 0:06.01)

Tom Chiu - Violin
Duduka Da Fonseca - Percussion, Drums
Xavier Davis - Piano
Anne Drummond - Flute
Dave Eggar - Cello
Nilson Matta - Bass
Paul Meyers - Guitar
Klaus Mueller - Piano, Arranger
Download available for power users only.
10:46
198
Нет комментариев. Ваш будет первым!