Вы используете незарегистрированную версию компонента "Вкладки"!

Поиск

(norway, contemporary jazz) Hakon Kornstad & Havard Wiik - Eight Tunes We Like - 2005, FLAC (tracks+.cue), lossless

Треклист:
Håkon Kornstad & Håvard Wiik - Eight Tunes We Like
Жанр: norway, contemporary jazz
Год выпуска диска: 2005
Производитель диска: Norway / Moserobie Music Production {MMPCD032}
Аудио кодек: FLAC
Тип рипа: tracks+.cue
Битрейт аудио: lossless
Продолжительность: 00:41:33
Треклист:
1. Touching
2. Jesus Maria
3. Birth
4. Calls
5. Op. 7 - Sehr langsahm
6. The Peacocks
7. Humpty Dumpty
8. Autumn in New York
line up:
Håkon Kornstad: Tenor Sax
Håvard Wiik: Piano
 
Review
Hakon Kornstad and Havard Wiik have produced an absolute gem of an album that is on my short list for Best of 2005. The joys of Eight Tunes We Like are manifold and start with this release's title. They are being more than half coy by using the word "tunes . A glance at the track titles will reveal only one that could be said to come from "The Great American Songbook , and hence be a "tune . The others cannot even be called modern standards. No, these are tunes that will only be known by those familiar with the work of the particular composers, including the ever popular "Op. 7 - Sehr Langsam of Anton Weber.
"Touching by Annette Peacock is an extremely powerful, yet relatively simply constructed melody, which nevertheless continually twists away from expectations. This rendition comes very close in both power and intensity to that from Marilyn Crispell, Gary Peacock and Paul Motian on Nothing Ever Was Anyway, Music of Annette Peacock (ECM), which I did not think was possible.
Carla Bley is represented by "Jesus Maria and "Calls. Both tunes have a relatively easily understood structure and hence can be remembered. The former is achingly and poignantly beautiful, and is perfectly served by Kornstad's thin and reserved tone, to which he adds very little vibrato. The latter tune is more fun which derives from its angular theme, but which also has some hidden pathos. The lightness is a good thing because it is programmed after Keith Jarrett's "Birth. This melody unfurls at its own pace in a perfectly balanced hymnal way, and Wiik is amazing here.
Webern seems to attract the European crowd that comes to jazz from the classical side. "Sehr Langsam (which can be translated as "very slowly or "very deliberately ) starts off with the highest clearest note that I have ever heard from a tenor sax; Kornstad is in total control of his instrument. He also produces an interesting effect which sounds like he is slapping or pulling the sax keys. The only question to be asked is, "What is the melody (that they like)?
Jimmy Rowles gets mentioned in any list of underrated players and his composition "The Peacocks is probably his best known tune. "Humpty Dumpty is from Ornette Coleman, and is really an only slightly warped Bop line, but which is given an anti-bop treatment that nevertheless manages to get to its musical core, first in an almost mystical way by Wiik alone, who leads Kornstad in, also alone at first, but then together as they both take the simple melody apart. The music is beginning to get more familiar, on purpose, I believe, in order to lead into the last tune.
The opening phrase of "Autumn in New York , which spans a sixth and is scalar except for one minor third, is instantly recognizable, and is used as the ground for the duo's improvisation. Their method is thus exposed, and what they are up to is now clear: any tune, even a "popular one like this, can be treated as a pure musical vehicle in the same manner as more "difficult or "dense tunes. Kornstad and Wiik are master improvisers who manage to get to the core of a given melody and get to its deepest emotional meaning, while maintaining a constant reference to that which makes it recognizable, which might be a particular interval or a figure played in a certain way. The listener always knows from whence he came and that makes the trip that much deeply satisfying. You will never hear "Autumn in the same way again.
The two men play as equals, rather than the expected saxophone with accompaniment. Wiik plays in the same range as Kornstad most of the time, enveloping the saxophone within his piano's caress, while managing to improvise on the tune at the same time as he is accompanying Kornstad. The saxophonist, physically heard in front, is always listening to the piano, and often switches to an accompanying mode himself. This give and take produces a unified whole when it happens during the development sections. Even during the introductory melodic declamations done by Kornstad, Wiik manages to answer every phrase with its perfect response. When he gets the chance to play alone, one can hear that he can easily carry the weight himself. At the same time, for each man alone and both together, all is understatement even during the more extroverted tunes; there is no need to be verbose.
Some albums can clock in at seventy minutes and fly by, while others make forty-five minutes seem interminable. The disc could easily have held four more "tunes they like , and its forty minutes, while feeling like they ended too quickly once the album was over, also had the effect of stopping time. The listener might want more but perhaps the performers felt that the intensity that had built up warranted keeping it short, or maybe they felt that they just could not expose themselves so totally any longer.
No matter, Eight Tunes We Like is a stunningly beautiful achievement and a major statement of musical purpose and method. In this respect it is an important album that will not allow you to hear these tunes the same way ever again. Bravo!

 
log
X Lossless Decoder version 20100711 (120.5)
XLD extraction logfile from 2010-08-17 18:02:49 +0200
Håkon Kornstad & Håvard Wiik / Eight Tunes We Like
Used drive : HL-DT-ST DVDRW GSA-S10N (revision AP12)
Use cdparanoia mode : YES (CDParanoia III 10.2 engine)
Disable audio cache : OK for the drive with cache less than 2750KB
Make use of C2 pointers : NO
Read offset correction : 667
Max retry count : 100
Gap status : Analyzed, Appended
TOC of the extracted CD
Track | Start | Length | Start sector | End sector
---------------------------------------------------------
1 | 00:00:00 | 04:43:72 | 0 | 21296
2 | 04:43:72 | 05:30:04 | 21297 | 46050
3 | 10:14:01 | 05:26:60 | 46051 | 70560
4 | 15:40:61 | 05:10:26 | 70561 | 93836
5 | 20:51:12 | 03:32:59 | 93837 | 109795
6 | 24:23:71 | 06:40:63 | 109796 | 139858
7 | 31:04:59 | 04:57:19 | 139859 | 162152
8 | 36:02:03 | 05:30:51 | 162153 | 186953
All Tracks
Album gain : -3.52 dB
Peak : 0.966400
Track 01
Filename : /Unsorted MP3/00 In Progress/Håkon Kornstad & Håvard Wiik - 2005 - Eight Tunes We Like/01 - Touching.flac
Pre-gap length : 00:02:00
Track gain : -1.69 dB
Peak : 0.784821
CRC32 hash (test run) : FFB8BE05
CRC32 hash : FFB8BE05
CRC32 hash (skip zero) : D7E41563
AccurateRip signature : BBE53C0F
->Track not present in AccurateRip database.
Statistics
Read error : 0
Skipped (treated as error) : 0
Edge jitter error (maybe fixed) : 0
Atom jitter error (maybe fixed) : 0
Drift error (maybe fixed) : 0
Dropped bytes error (maybe fixed) : 0
Duplicated bytes error (maybe fixed) : 0
Inconsistency in error sectors : 0
Track 02
Filename : /Unsorted MP3/00 In Progress/Håkon Kornstad & Håvard Wiik - 2005 - Eight Tunes We Like/02 - Jesus Maria.flac
Pre-gap length : 00:01:08
Track gain : -4.96 dB
Peak : 0.965851
CRC32 hash (test run) : AEE35E03
CRC32 hash : AEE35E03
CRC32 hash (skip zero) : E87F1B90
AccurateRip signature : B3D17B60
->Track not present in AccurateRip database.
Statistics
Read error : 0
Skipped (treated as error) : 0
Edge jitter error (maybe fixed) : 0
Atom jitter error (maybe fixed) : 0
Drift error (maybe fixed) : 0
Dropped bytes error (maybe fixed) : 0
Duplicated bytes error (maybe fixed) : 0
Inconsistency in error sectors : 0
Track 03
Filename : /Unsorted MP3/00 In Progress/Håkon Kornstad & Håvard Wiik - 2005 - Eight Tunes We Like/03 - Birth.flac
Pre-gap length : 00:03:26
Track gain : -2.03 dB
Peak : 0.785706
CRC32 hash (test run) : 6C15F126
CRC32 hash : 6C15F126
CRC32 hash (skip zero) : 0D0E75DE
AccurateRip signature : C01742E3
->Track not present in AccurateRip database.
Statistics
Read error : 0
Skipped (treated as error) : 0
Edge jitter error (maybe fixed) : 0
Atom jitter error (maybe fixed) : 0
Drift error (maybe fixed) : 0
Dropped bytes error (maybe fixed) : 0
Duplicated bytes error (maybe fixed) : 0
Inconsistency in error sectors : 0
Track 04
Filename : /Unsorted MP3/00 In Progress/Håkon Kornstad & Håvard Wiik - 2005 - Eight Tunes We Like/04 - Calls.flac
Pre-gap length : 00:00:69
Track gain : -4.61 dB
Peak : 0.966125
CRC32 hash (test run) : CCA3F784
CRC32 hash : CCA3F784
CRC32 hash (skip zero) : 4687BF4E
AccurateRip signature : A8244FF5
->Track not present in AccurateRip database.
Statistics
Read error : 0
Skipped (treated as error) : 0
Edge jitter error (maybe fixed) : 0
Atom jitter error (maybe fixed) : 0
Drift error (maybe fixed) : 0
Dropped bytes error (maybe fixed) : 0
Duplicated bytes error (maybe fixed) : 0
Inconsistency in error sectors : 0
Track 05
Filename : /Unsorted MP3/00 In Progress/Håkon Kornstad & Håvard Wiik - 2005 - Eight Tunes We Like/05 - Op. 7 - Sehr langsahm.flac
Pre-gap length : 00:04:09
Track gain : -1.77 dB
Peak : 0.966400
CRC32 hash (test run) : B5E5B003
CRC32 hash : B5E5B003
CRC32 hash (skip zero) : B62BDA9E
AccurateRip signature : 855366C9
->Track not present in AccurateRip database.
Statistics
Read error : 0
Skipped (treated as error) : 0
Edge jitter error (maybe fixed) : 0
Atom jitter error (maybe fixed) : 0
Drift error (maybe fixed) : 0
Dropped bytes error (maybe fixed) : 0
Duplicated bytes error (maybe fixed) : 0
Inconsistency in error sectors : 0
Track 06
Filename : /Unsorted MP3/00 In Progress/Håkon Kornstad & Håvard Wiik - 2005 - Eight Tunes We Like/06 - The Peacocks.flac
Pre-gap length : 00:03:07
Track gain : -2.75 dB
Peak : 0.826569
CRC32 hash (test run) : 19ED298F
CRC32 hash : 19ED298F
CRC32 hash (skip zero) : F3D9D94A
AccurateRip signature : 49FEAAC0
->Track not present in AccurateRip database.
Statistics
Read error : 0
Skipped (treated as error) : 0
Edge jitter error (maybe fixed) : 0
Atom jitter error (maybe fixed) : 0
Drift error (maybe fixed) : 0
Dropped bytes error (maybe fixed) : 0
Duplicated bytes error (maybe fixed) : 0
Inconsistency in error sectors : 0
Track 07
Filename : /Unsorted MP3/00 In Progress/Håkon Kornstad & Håvard Wiik - 2005 - Eight Tunes We Like/07 - Humpty Dumpty.flac
Pre-gap length : 00:00:59
Track gain : -3.79 dB
Peak : 0.965637
CRC32 hash (test run) : 08014385
CRC32 hash : 08014385
CRC32 hash (skip zero) : 5CB959B1
AccurateRip signature : A11E86D2
->Track not present in AccurateRip database.
Statistics
Read error : 0
Skipped (treated as error) : 0
Edge jitter error (maybe fixed) : 0
Atom jitter error (maybe fixed) : 0
Drift error (maybe fixed) : 0
Dropped bytes error (maybe fixed) : 0
Duplicated bytes error (maybe fixed) : 0
Inconsistency in error sectors : 0
Track 08
Filename : /Unsorted MP3/00 In Progress/Håkon Kornstad & Håvard Wiik - 2005 - Eight Tunes We Like/08 - Autumn in New York.flac
Pre-gap length : 00:04:08
Track gain : -3.00 dB
Peak : 0.851318
CRC32 hash (test run) : 90AD6F88
CRC32 hash : 90AD6F88
CRC32 hash (skip zero) : A550229C
AccurateRip signature : B7EA1DC0
->Track not present in AccurateRip database.
Statistics
Read error : 0
Skipped (treated as error) : 0
Edge jitter error (maybe fixed) : 0
Atom jitter error (maybe fixed) : 0
Drift error (maybe fixed) : 0
Dropped bytes error (maybe fixed) : 0
Duplicated bytes error (maybe fixed) : 0
Inconsistency in error sectors : 0
No errors occurred
End of status report
 
cue
TITLE "Eight Tunes We Like"
PERFORMER "Håkon Kornstad & Håvard Wiik"
REM DATE "2005"
REM DISCID 6A09BC08
FILE "01 - Touching.wav" WAVE
TRACK 01 AUDIO
TITLE "Touching"
INDEX 01 00:00:00
TRACK 02 AUDIO
TITLE "Jesus Maria"
INDEX 00 04:42:64
FILE "02 - Jesus Maria.wav" WAVE
INDEX 01 00:00:00
TRACK 03 AUDIO
TITLE "Birth"
INDEX 00 05:26:53
FILE "03 - Birth.wav" WAVE
INDEX 01 00:00:00
TRACK 04 AUDIO
TITLE "Calls"
INDEX 00 05:25:66
FILE "04 - Calls.wav" WAVE
INDEX 01 00:00:00
TRACK 05 AUDIO
TITLE "Op. 7 - Sehr langsahm"
INDEX 00 05:06:17
FILE "05 - Op. 7 - Sehr langsahm.wav" WAVE
INDEX 01 00:00:00
TRACK 06 AUDIO
TITLE "The Peacocks"
INDEX 00 03:29:52
FILE "06 - The Peacocks.wav" WAVE
INDEX 01 00:00:00
TRACK 07 AUDIO
TITLE "Humpty Dumpty"
INDEX 00 06:40:04
FILE "07 - Humpty Dumpty.wav" WAVE
INDEX 01 00:00:00
TRACK 08 AUDIO
TITLE "Autumn in New York"
INDEX 00 04:53:11
FILE "08 - Autumn in New York.wav" WAVE
INDEX 01 00:00:00

Рип by zopatista

другие альбомы на трекере
Any questions -> support@pro-jazz.com. По всем вопросам пишите -> support@pro-jazz.com
02:23
144
Нет комментариев. Ваш будет первым!