Вы используете незарегистрированную версию компонента "Вкладки"!

Поиск

(norway, contemporary jazz) Hakon Kornstad & Havard Wiik - The Bad and the Beautiful - 2006, FLAC (tracks+.cue), lossless

Треклист:
Håkon Kornstad & Håvard Wiik - The Bad and the Beautiful
Жанр: norway, contemporary jazz
Год выпуска диска: 2006
Производитель диска: Norway / Moserobie Music Production {MMPCD048}
Аудио кодек: FLAC
Тип рипа: tracks+.cue
Битрейт аудио: lossless
Продолжительность: 00:45:51
Треклист:
1. King Korn
2. Circles
3. Embracable You
4. John S
5. Bad and the Beautiful
6. Roussillion
7. Four in One
8. Lady of the Island
9. Geometry
10. Law Years
11. Warszawa
line up:
Personnel:
Håkon Kornstad: Tenor Sax
Håvard Wiik: Piano
 
Review
The Bad And The Beautiful marks the second installment of unique, intellectually stimulating and very emotional musical vignettes from saxophonist Håkon Kornstad and pianist Håvard Wiik, after Eight Tunes We Like (Moserobie, 2005).
As was done previously, the tunes range from older and newer standards to intriguing tunes by today's composers, plus a couple of pop tunes that really work. Regardless of their pedigree, each piece has a certain latent possibility buried within it. Kornstad and Wiik's efforts are directed towards exposing the inner workings of these marvelous compositions; saying, in effect, "This is what they are really about."
Eschewing any kind of studio magic, the duo is recorded very dryly, which is heard as an extension of their respective musical personalities. Kornstad uses a thin but focused tone with little airiness or vibrato, and stays mostly in higher range of the tenor saxophone. Wiik's touch is very delicate and spare, leaving lots of space. His playing might be heard as that of a modern Teddy Wilson, whose notes have been described as strings of pearls.
The immediacy and directness of the sound adds to the emotional impact of the album, which accumulates over the course of the tunes. The effect, as on the previous album, is subtle and beautiful, without a hint of the bombastic. They are playing to each other and for themselves, creating an air of intimacy. Thankfully, we get to hear it.
"Embraceable You," by George Gershwin, will most surely be recognized by anyone familiar with the Great American Songbook. The deconstruction of the tune is remarkable and touches on the question every improviser asks: "What is the essence of this tune?" Listening to this track is to understand what the tune is about emotionally as well as musically, as they reference it continually without ever actually playing it.
At the other end of the spectrum is Graham Nash's "Lady Of The Island," one of the high points of the album Crosby, Stills And Nash (Atlantic, 1969). This remarkable composition, that mixes poetry with floating, beautiful harmonies, is also taken apart and presented anew to the listener, who will never hear the original again in the same way. It would not be surprising if this track is picked up by others and the tune becomes a standard.
That the album is named after a David Raksin composition—a writer best known for his film scores, and especially for Laura (1944), the theme of which became a hit with lyrics by Johnny Mercer—is telling. Time literally stops, as Wiik plays the slow arpeggios that announce the gossamer harmonies; the track is five minutes of heaven.
The Bad And The Beautiful rates another heartfelt bravo!

 
log
X Lossless Decoder version 20100711 (120.5)
XLD extraction logfile from 2010-08-17 22:26:20 +0200
Håkon Kornstad & Håvard Wiik / The Bad and the Beautiful
Used drive : HL-DT-ST DVDRW GSA-S10N (revision AP12)
Use cdparanoia mode : YES (CDParanoia III 10.2 engine)
Disable audio cache : OK for the drive with cache less than 2750KB
Make use of C2 pointers : NO
Read offset correction : 667
Max retry count : 100
Gap status : Analyzed, Appended
TOC of the extracted CD
Track | Start | Length | Start sector | End sector
---------------------------------------------------------
1 | 00:00:00 | 03:36:47 | 0 | 16246
2 | 03:36:47 | 03:57:63 | 16247 | 34084
3 | 07:34:35 | 05:01:16 | 34085 | 56675
4 | 12:35:51 | 04:30:00 | 56676 | 76925
5 | 17:05:51 | 04:41:45 | 76926 | 98045
6 | 21:47:21 | 05:10:24 | 98046 | 121319
7 | 26:57:45 | 03:56:53 | 121320 | 139072
8 | 30:54:23 | 05:03:64 | 139073 | 161861
9 | 35:58:12 | 02:07:45 | 161862 | 171431
10 | 38:05:57 | 04:48:10 | 171432 | 193041
11 | 42:53:67 | 02:55:66 | 193042 | 206232
All Tracks
Album gain : -5.06 dB
Peak : 0.973663
Track 01
Filename : /Unsorted MP3/00 In Progress/Håkon Kornstad & Håvard Wiik - 2006 - The Bad and the Beautiful/01 - King Korn.flac
Pre-gap length : 00:02:00
Track gain : -7.24 dB
Peak : 0.973663
CRC32 hash (test run) : 7B109543
CRC32 hash : 7B109543
CRC32 hash (skip zero) : FFEA81AD
AccurateRip signature : 13F79308
->Accurately ripped! (confidence 2)
Statistics
Read error : 0
Skipped (treated as error) : 0
Edge jitter error (maybe fixed) : 0
Atom jitter error (maybe fixed) : 0
Drift error (maybe fixed) : 0
Dropped bytes error (maybe fixed) : 0
Duplicated bytes error (maybe fixed) : 0
Inconsistency in error sectors : 0
Track 02
Filename : /Unsorted MP3/00 In Progress/Håkon Kornstad & Håvard Wiik - 2006 - The Bad and the Beautiful/02 - Circles.flac
Pre-gap length : 00:03:42
Track gain : -3.67 dB
Peak : 0.799500
CRC32 hash (test run) : EBAF8C2B
CRC32 hash : EBAF8C2B
CRC32 hash (skip zero) : FE440459
AccurateRip signature : 269EBC4C
->Accurately ripped! (confidence 2)
Statistics
Read error : 0
Skipped (treated as error) : 0
Edge jitter error (maybe fixed) : 0
Atom jitter error (maybe fixed) : 0
Drift error (maybe fixed) : 0
Dropped bytes error (maybe fixed) : 0
Duplicated bytes error (maybe fixed) : 0
Inconsistency in error sectors : 0
Track 03
Filename : /Unsorted MP3/00 In Progress/Håkon Kornstad & Håvard Wiik - 2006 - The Bad and the Beautiful/03 - Embracable You.flac
Pre-gap length : 00:04:30
Track gain : -4.96 dB
Peak : 0.970886
CRC32 hash (test run) : C75B66FE
CRC32 hash : C75B66FE
CRC32 hash (skip zero) : B1ADD15F
AccurateRip signature : A53635D0
->Accurately ripped! (confidence 2)
Statistics
Read error : 0
Skipped (treated as error) : 0
Edge jitter error (maybe fixed) : 0
Atom jitter error (maybe fixed) : 0
Drift error (maybe fixed) : 0
Dropped bytes error (maybe fixed) : 0
Duplicated bytes error (maybe fixed) : 0
Inconsistency in error sectors : 0
Track 04
Filename : /Unsorted MP3/00 In Progress/Håkon Kornstad & Håvard Wiik - 2006 - The Bad and the Beautiful/04 - John S.flac
Pre-gap length : 00:04:44
Track gain : -3.82 dB
Peak : 0.971375
CRC32 hash (test run) : 8C474FB3
CRC32 hash : 8C474FB3
CRC32 hash (skip zero) : 11B4D73C
AccurateRip signature : F23F84F0
->Accurately ripped! (confidence 2)
Statistics
Read error : 0
Skipped (treated as error) : 0
Edge jitter error (maybe fixed) : 0
Atom jitter error (maybe fixed) : 0
Drift error (maybe fixed) : 0
Dropped bytes error (maybe fixed) : 0
Duplicated bytes error (maybe fixed) : 0
Inconsistency in error sectors : 0
Track 05
Filename : /Unsorted MP3/00 In Progress/Håkon Kornstad & Håvard Wiik - 2006 - The Bad and the Beautiful/05 - Bad and the Beautiful.flac
Pre-gap length : 00:03:71
Track gain : -3.21 dB
Peak : 0.952301
CRC32 hash (test run) : A64C68A1
CRC32 hash : A64C68A1
CRC32 hash (skip zero) : 4C0C63AC
AccurateRip signature : 26184701
->Accurately ripped! (confidence 2)
Statistics
Read error : 0
Skipped (treated as error) : 0
Edge jitter error (maybe fixed) : 0
Atom jitter error (maybe fixed) : 0
Drift error (maybe fixed) : 0
Dropped bytes error (maybe fixed) : 0
Duplicated bytes error (maybe fixed) : 0
Inconsistency in error sectors : 0
Track 06
Filename : /Unsorted MP3/00 In Progress/Håkon Kornstad & Håvard Wiik - 2006 - The Bad and the Beautiful/06 - Roussillion.flac
Pre-gap length : 00:02:00
Track gain : -3.97 dB
Peak : 0.970551
CRC32 hash (test run) : 749E26E6
CRC32 hash : 749E26E6
CRC32 hash (skip zero) : 9E2B107E
AccurateRip signature : 65A6367C
->Accurately ripped! (confidence 2)
Statistics
Read error : 0
Skipped (treated as error) : 0
Edge jitter error (maybe fixed) : 0
Atom jitter error (maybe fixed) : 0
Drift error (maybe fixed) : 0
Dropped bytes error (maybe fixed) : 0
Duplicated bytes error (maybe fixed) : 0
Inconsistency in error sectors : 0
Track 07
Filename : /Unsorted MP3/00 In Progress/Håkon Kornstad & Håvard Wiik - 2006 - The Bad and the Beautiful/07 - Four in One.flac
Pre-gap length : 00:03:26
Track gain : -5.42 dB
Peak : 0.971405
CRC32 hash (test run) : 4EFE0156
CRC32 hash : 4EFE0156
CRC32 hash (skip zero) : D9149394
AccurateRip signature : 3AA4592C
->Accurately ripped! (confidence 2)
Statistics
Read error : 0
Skipped (treated as error) : 0
Edge jitter error (maybe fixed) : 0
Atom jitter error (maybe fixed) : 0
Drift error (maybe fixed) : 0
Dropped bytes error (maybe fixed) : 0
Duplicated bytes error (maybe fixed) : 0
Inconsistency in error sectors : 0
Track 08
Filename : /Unsorted MP3/00 In Progress/Håkon Kornstad & Håvard Wiik - 2006 - The Bad and the Beautiful/08 - Lady of the Island.flac
Pre-gap length : 00:03:69
Track gain : -4.68 dB
Peak : 0.971130
CRC32 hash (test run) : 5438C2B6
CRC32 hash : 5438C2B6
CRC32 hash (skip zero) : 2F3018D8
AccurateRip signature : EB3100F3
->Accurately ripped! (confidence 2)
Statistics
Read error : 0
Skipped (treated as error) : 0
Edge jitter error (maybe fixed) : 0
Atom jitter error (maybe fixed) : 0
Drift error (maybe fixed) : 0
Dropped bytes error (maybe fixed) : 0
Duplicated bytes error (maybe fixed) : 0
Inconsistency in error sectors : 0
Track 09
Filename : /Unsorted MP3/00 In Progress/Håkon Kornstad & Håvard Wiik - 2006 - The Bad and the Beautiful/09 - Geometry.flac
Pre-gap length : 00:03:24
Track gain : -4.92 dB
Peak : 0.884979
CRC32 hash (test run) : 1489C6A4
CRC32 hash : 1489C6A4
CRC32 hash (skip zero) : DDE0D03D
AccurateRip signature : 84FA2B86
->Accurately ripped! (confidence 2)
Statistics
Read error : 0
Skipped (treated as error) : 0
Edge jitter error (maybe fixed) : 0
Atom jitter error (maybe fixed) : 0
Drift error (maybe fixed) : 0
Dropped bytes error (maybe fixed) : 0
Duplicated bytes error (maybe fixed) : 0
Inconsistency in error sectors : 0
Track 10
Filename : /Unsorted MP3/00 In Progress/Håkon Kornstad & Håvard Wiik - 2006 - The Bad and the Beautiful/10 - Law Years.flac
Pre-gap length : 00:01:09
Track gain : -5.40 dB
Peak : 0.972260
CRC32 hash (test run) : 3C0CE830
CRC32 hash : 3C0CE830
CRC32 hash (skip zero) : 1A678C65
AccurateRip signature : 570C258A
->Accurately ripped! (confidence 2)
Statistics
Read error : 0
Skipped (treated as error) : 0
Edge jitter error (maybe fixed) : 0
Atom jitter error (maybe fixed) : 0
Drift error (maybe fixed) : 0
Dropped bytes error (maybe fixed) : 0
Duplicated bytes error (maybe fixed) : 0
Inconsistency in error sectors : 0
Track 11
Filename : /Unsorted MP3/00 In Progress/Håkon Kornstad & Håvard Wiik - 2006 - The Bad and the Beautiful/11 - Warszawa.flac
Pre-gap length : 00:07:48
Track gain : -5.43 dB
Peak : 0.970764
CRC32 hash (test run) : 81B8544E
CRC32 hash : 81B8544E
CRC32 hash (skip zero) : 07D3FF90
AccurateRip signature : DEBB1DFF
->Accurately ripped! (confidence 2)
Statistics
Read error : 0
Skipped (treated as error) : 0
Edge jitter error (maybe fixed) : 0
Atom jitter error (maybe fixed) : 0
Drift error (maybe fixed) : 0
Dropped bytes error (maybe fixed) : 0
Duplicated bytes error (maybe fixed) : 0
Inconsistency in error sectors : 0
No errors occurred
End of status report
 
cue
TITLE "The Bad and the Beautiful"
PERFORMER "Håkon Kornstad & Håvard Wiik"
REM DATE "2006"
REM DISCID 9A0ABD0B
FILE "01 - King Korn.wav" WAVE
TRACK 01 AUDIO
TITLE "King Korn"
ISRC SEWUD0600701
INDEX 01 00:00:00
TRACK 02 AUDIO
TITLE "Circles"
ISRC SEWUD0600702
INDEX 00 03:33:05
FILE "02 - Circles.wav" WAVE
INDEX 01 00:00:00
TRACK 03 AUDIO
TITLE "Embracable You"
ISRC SEWUD0600703
INDEX 00 03:53:33
FILE "03 - Embracable You.wav" WAVE
INDEX 01 00:00:00
TRACK 04 AUDIO
TITLE "John S"
ISRC SEWUD0600705
INDEX 00 04:56:47
FILE "04 - John S.wav" WAVE
INDEX 01 00:00:00
TRACK 05 AUDIO
TITLE "Bad and the Beautiful"
ISRC SEWUD0600705
INDEX 00 04:26:04
FILE "05 - Bad and the Beautiful.wav" WAVE
INDEX 01 00:00:00
TRACK 06 AUDIO
TITLE "Roussillion"
ISRC SEWUD0600706
INDEX 00 04:39:45
FILE "06 - Roussillion.wav" WAVE
INDEX 01 00:00:00
TRACK 07 AUDIO
TITLE "Four in One"
ISRC SEWUD0600708
INDEX 00 05:06:73
FILE "07 - Four in One.wav" WAVE
INDEX 01 00:00:00
TRACK 08 AUDIO
TITLE "Lady of the Island"
ISRC SEWUD0600708
INDEX 00 03:52:59
FILE "08 - Lady of the Island.wav" WAVE
INDEX 01 00:00:00
TRACK 09 AUDIO
TITLE "Geometry"
ISRC SEWUD0600709
INDEX 00 05:00:40
FILE "09 - Geometry.wav" WAVE
INDEX 01 00:00:00
TRACK 10 AUDIO
TITLE "Law Years"
ISRC SEWUD0600711
INDEX 00 02:06:36
FILE "10 - Law Years.wav" WAVE
INDEX 01 00:00:00
TRACK 11 AUDIO
TITLE "Warszawa"
ISRC SEWUD0600711
INDEX 00 04:40:37
FILE "11 - Warszawa.wav" WAVE
INDEX 01 00:00:00

Рип by zopatista

другие альбомы на трекере
По всем вопросам пишите личное сообщение пользователю M0p94ok.
02:23
145
Нет комментариев. Ваш будет первым!