Вы используете незарегистрированную версию компонента "Вкладки"!

Поиск

(Free Jazz, Avant-Garde) Blindman Kwartet - Poortenbos - 1996, FLAC (tracks+.cue), lossless

Треклист:
Blindman Kwartet - Poortenbos
Жанр: Free Jazz, Avant-Garde
Год выпуска диска: 1996
Производитель диска: Belgium
Label: Sub Rosa SUB CD020-42
Аудио кодек: FLAC
Тип рипа: tracks+.cue + Artwork
Битрейт аудио: lossless
Продолжительность: 1:04:25
Происхождение рипа: собственный рип с оригинального диска.
Треклист:
01. Lié/Délié Tied 11:00
02. Untied
03. Pieces
04. Plateaux, 3th Movement For Beuys 4:56
05. Poortenbos 48:35
Poort 1: Circular Chants
Poort 2: Tongues
Poort 3: Slender
05. Circular Chants
06. Tongues
07. Slender
08. Awakening
09. Muted Chants
10. Canon
11. Rando
12. Precipitate
13. Hymn
14. Vista
15. Chorus
16. Fanfare
Доп. информация:
Martin Fredebeul - soprano sax
Luk Mishalle - tenor sax
Veronique Delmelle - baritone sax
Eric Sleichim - alto sax
 
EAC log
Exact Audio Copy V0.99 prebeta 5 from 4. May 2009
EAC extraction logfile from 16. August 2010, 21:54
Blindman kwartet / Poortenbos
Used drive : HL-DT-STDVD-ROM GDR8162B Adapter: 1 ID: 1
Read mode : Secure
Utilize accurate stream : Yes
Defeat audio cache : Yes
Make use of C2 pointers : No
Read offset correction : 102
Overread into Lead-In and Lead-Out : Yes
Fill up missing offset samples with silence : Yes
Delete leading and trailing silent blocks : No
Null samples used in CRC calculations : Yes
Used interface : Installed external ASPI interface
Gap handling : Appended to previous track
Used output format : User Defined Encoder
Selected bitrate : 768 kBit/s
Quality : High
Add ID3 tag : No
Command line compressor : C:\Program Files\FLAC\flac.exe
Additional command line options : -V -8 -T "ARTIST=%a" -T "TITLE=%t" -T "ALBUM=%g" -T "TRACKNUMBER=%n" -T "GENRE=%m" %s
TOC of the extracted CD
Track | Start | Length | Start sector | End sector
---------------------------------------------------------
1 | 0:00.00 | 3:06.17 | 0 | 13966
2 | 3:06.17 | 5:30.10 | 13967 | 38726
3 | 8:36.27 | 2:24.20 | 38727 | 49546
4 | 11:00.47 | 4:55.30 | 49547 | 71701
5 | 15:56.02 | 6:30.38 | 71702 | 100989
6 | 22:26.40 | 3:20.05 | 100990 | 115994
7 | 25:46.45 | 3:09.27 | 115995 | 130196
8 | 28:55.72 | 5:27.55 | 130197 | 154776
9 | 34:23.52 | 5:43.60 | 154777 | 180561
10 | 40:07.37 | 2:20.45 | 180562 | 191106
11 | 42:28.07 | 4:17.28 | 191107 | 210409
12 | 46:45.35 | 3:41.07 | 210410 | 226991
13 | 50:26.42 | 6:32.70 | 226992 | 256461
14 | 56:59.37 | 1:18.03 | 256462 | 262314
15 | 58:17.40 | 2:57.15 | 262315 | 275604
16 | 61:14.55 | 3:16.32 | 275605 | 290336
Track 1
Filename C:\ru up\Blindman\01 - Lié,Delié (Mvt I-Tied).wav
Pre-gap length 0:00:02.00
Peak level 99.8 %
Track quality 100.0 %
Test CRC 98C1F23B
Copy CRC 98C1F23B
Track not present in AccurateRip database
Copy OK
Track 2
Filename C:\ru up\Blindman\02 - Lié,Delié (Mvt II-Untied).wav
Pre-gap length 0:00:01.67
Peak level 99.9 %
Track quality 100.0 %
Test CRC 3949BB2B
Copy CRC 3949BB2B
Track not present in AccurateRip database
Copy OK
Track 3
Filename C:\ru up\Blindman\03 - Lié,Delié (Mvt III-Pieces).wav
Pre-gap length 0:00:01.50
Peak level 99.9 %
Track quality 100.0 %
Test CRC E85496E0
Copy CRC E85496E0
Track not present in AccurateRip database
Copy OK
Track 4
Filename C:\ru up\Blindman\04 - Plateaux (3th Movement for Beuys).wav
Pre-gap length 0:00:07.42
Peak level 100.0 %
Track quality 100.0 %
Test CRC 9B193D3C
Copy CRC 9B193D3C
Track not present in AccurateRip database
Copy OK
Track 5
Filename C:\ru up\Blindman\05 - Poortenbos (Poort 1 - Circular chants).wav
Pre-gap length 0:00:02.52
Peak level 55.5 %
Track quality 99.9 %
Test CRC C1AF6EE2
Copy CRC C1AF6EE2
Track not present in AccurateRip database
Copy OK
Track 6
Filename C:\ru up\Blindman\06 - Poortenbos (Poort 2 - Tongues).wav
Pre-gap length 0:00:03.38
Peak level 100.0 %
Track quality 100.0 %
Test CRC BC9ED85E
Copy CRC BC9ED85E
Track not present in AccurateRip database
Copy OK
Track 7
Filename C:\ru up\Blindman\07 - Poortenbos (Poort 3 - Slender).wav
Pre-gap length 0:00:00.03
Peak level 100.0 %
Track quality 100.0 %
Test CRC CAAC3DCC
Copy CRC CAAC3DCC
Track not present in AccurateRip database
Copy OK
Track 8
Filename C:\ru up\Blindman\08 - Poortenbos (Mvt I - Awakening).wav
Pre-gap length 0:00:01.55
Peak level 98.2 %
Track quality 99.9 %
Test CRC D95C0672
Copy CRC D95C0672
Track not present in AccurateRip database
Copy OK
Track 9
Filename C:\ru up\Blindman\09 - Poortenbos (Poort 4 - Muted chants).wav
Pre-gap length 0:00:05.47
Peak level 45.1 %
Track quality 100.0 %
Test CRC 185D6862
Copy CRC 185D6862
Track not present in AccurateRip database
Copy OK
Track 10
Filename C:\ru up\Blindman\10 - Poortenbos (Poort 5 - Canon).wav
Pre-gap length 0:00:00.15
Peak level 68.7 %
Track quality 100.0 %
Test CRC F8043D8D
Copy CRC F8043D8D
Track not present in AccurateRip database
Copy OK
Track 11
Filename C:\ru up\Blindman\11 - Poortenbos (Poort 6 - Rondo).wav
Pre-gap length 0:00:01.27
Peak level 99.6 %
Track quality 99.9 %
Test CRC D1C86207
Copy CRC D1C86207
Track not present in AccurateRip database
Copy OK
Track 12
Filename C:\ru up\Blindman\12 - Poortenbos (Mvt II - Precipitate).wav
Pre-gap length 0:00:01.33
Peak level 98.8 %
Track quality 100.0 %
Test CRC E3B05F48
Copy CRC E3B05F48
Track not present in AccurateRip database
Copy OK
Track 13
Filename C:\ru up\Blindman\13 - Poortenbos (Poort 7 - Hymn).wav
Pre-gap length 0:00:02.65
Peak level 78.1 %
Track quality 100.0 %
Test CRC CF81CDD9
Copy CRC CF81CDD9
Track not present in AccurateRip database
Copy OK
Track 14
Filename C:\ru up\Blindman\14 - Poortenbos (Poort 8 - Vista).wav
Pre-gap length 0:00:02.55
Peak level 80.6 %
Track quality 99.8 %
Test CRC FF7060AD
Copy CRC FF7060AD
Track not present in AccurateRip database
Copy OK
Track 15
Filename C:\ru up\Blindman\15 - Poortenbos (Poort 9 - Chorus).wav
Pre-gap length 0:00:02.50
Peak level 77.3 %
Track quality 100.0 %
Test CRC 58C5756F
Copy CRC 58C5756F
Track not present in AccurateRip database
Copy OK
Track 16
Filename C:\ru up\Blindman\16 - Poortenbos (Mvt III - Fanfare).wav
Pre-gap length 0:00:01.15
Peak level 99.9 %
Track quality 100.0 %
Test CRC 47A1FD64
Copy CRC 47A1FD64
Track not present in AccurateRip database
Copy OK
None of the tracks are present in the AccurateRip database
No errors occurred
End of status report
 
cue
REM GENRE Avantgarde
REM DATE 2002
REM DISCID F80F1F10
REM COMMENT "ExactAudioCopy v0.99pb5"
PERFORMER "Blindman kwartet"
TITLE "Poortenbos"
FILE "01 - Lié,Delié (Mvt I-Tied).wav" WAVE
TRACK 01 AUDIO
TITLE "Lié/Delié (Mvt I:Tied)"
PERFORMER "Blindman kwartet"
INDEX 01 00:00:00
TRACK 02 AUDIO
TITLE "Lié/Delié (Mvt II:Untied)"
PERFORMER "Blindman kwartet"
INDEX 00 03:04:25
FILE "02 - Lié,Delié (Mvt II-Untied).wav" WAVE
INDEX 01 00:00:00
TRACK 03 AUDIO
TITLE "Lié/Delié (Mvt III:Pieces)"
PERFORMER "Blindman kwartet"
INDEX 00 05:28:35
FILE "03 - Lié,Delié (Mvt III-Pieces).wav" WAVE
INDEX 01 00:00:00
TRACK 04 AUDIO
TITLE "Plateaux (3th Movement for Beuys)"
PERFORMER "Blindman kwartet"
INDEX 00 02:16:53
FILE "04 - Plateaux (3th Movement for Beuys).wav" WAVE
INDEX 01 00:00:00
TRACK 05 AUDIO
TITLE "Poortenbos (Poort 1 : Circular chants)"
PERFORMER "Blindman kwartet"
INDEX 00 04:52:53
FILE "05 - Poortenbos (Poort 1 - Circular chants).wav" WAVE
INDEX 01 00:00:00
TRACK 06 AUDIO
TITLE "Poortenbos (Poort 2 : Tongues)"
PERFORMER "Blindman kwartet"
INDEX 00 06:27:00
FILE "06 - Poortenbos (Poort 2 - Tongues).wav" WAVE
INDEX 01 00:00:00
TRACK 07 AUDIO
TITLE "Poortenbos (Poort 3 : Slender)"
PERFORMER "Blindman kwartet"
INDEX 00 03:20:02
FILE "07 - Poortenbos (Poort 3 - Slender).wav" WAVE
INDEX 01 00:00:00
TRACK 08 AUDIO
TITLE "Poortenbos (Mvt I : Awakening)"
PERFORMER "Blindman kwartet"
INDEX 00 03:07:47
FILE "08 - Poortenbos (Mvt I - Awakening).wav" WAVE
INDEX 01 00:00:00
TRACK 09 AUDIO
TITLE "Poortenbos (Poort 4 : Muted chants)"
PERFORMER "Blindman kwartet"
INDEX 00 05:22:08
FILE "09 - Poortenbos (Poort 4 - Muted chants).wav" WAVE
INDEX 01 00:00:00
TRACK 10 AUDIO
TITLE "Poortenbos (Poort 5 : Canon)"
PERFORMER "Blindman kwartet"
INDEX 00 05:43:45
FILE "10 - Poortenbos (Poort 5 - Canon).wav" WAVE
INDEX 01 00:00:00
TRACK 11 AUDIO
TITLE "Poortenbos (Poort 6 : Rondo)"
PERFORMER "Blindman kwartet"
INDEX 00 02:19:18
FILE "11 - Poortenbos (Poort 6 - Rondo).wav" WAVE
INDEX 01 00:00:00
TRACK 12 AUDIO
TITLE "Poortenbos (Mvt II : Precipitate)"
PERFORMER "Blindman kwartet"
INDEX 00 04:15:70
FILE "12 - Poortenbos (Mvt II - Precipitate).wav" WAVE
INDEX 01 00:00:00
TRACK 13 AUDIO
TITLE "Poortenbos (Poort 7 : Hymn)"
PERFORMER "Blindman kwartet"
INDEX 00 03:38:17
FILE "13 - Poortenbos (Poort 7 - Hymn).wav" WAVE
INDEX 01 00:00:00
TRACK 14 AUDIO
TITLE "Poortenbos (Poort 8 : Vista)"
PERFORMER "Blindman kwartet"
INDEX 00 06:30:15
FILE "14 - Poortenbos (Poort 8 - Vista).wav" WAVE
INDEX 01 00:00:00
TRACK 15 AUDIO
TITLE "Poortenbos (Poort 9 : Chorus)"
PERFORMER "Blindman kwartet"
INDEX 00 01:15:28
FILE "15 - Poortenbos (Poort 9 - Chorus).wav" WAVE
INDEX 01 00:00:00
TRACK 16 AUDIO
TITLE "Poortenbos (Mvt III : Fanfare)"
PERFORMER "Blindman kwartet"
INDEX 00 02:56:00
FILE "16 - Poortenbos (Mvt III - Fanfare).wav" WAVE
INDEX 01 00:00:00
The music for Blindman Kwartet dosn't rest content with the sounds for which the instrument was designed...
Any questions -> support@pro-jazz.com. По всем вопросам пишите -> support@pro-jazz.com
02:22
151
Нет комментариев. Ваш будет первым!