Вы используете незарегистрированную версию компонента "Вкладки"!

Поиск

(norway, contemporary jazz, avant-garde) Alpaca Ensemble - Tapet Tapet! - 2007, FLAC (tracks+.cue), lossless

Треклист:
Alpaca Ensemble - Tapet Tapet!
Жанр: norway, contemporary jazz, avant-garde
Год выпуска диска: 2007
Производитель диска: Norway/Jazzaway Records {JRCD039}
Аудио кодек: FLAC
Тип рипа: tracks+.cue
Битрейт аудио: lossless
Продолжительность: 00:42:05
Треклист:
1. Tapet Tapet!!
2. Blandet tapet
3. Tango für Else
4. Tapet unis
5. Tapet original
6. Mariannes tapet
7. Tapet perket
8. Bølget tapet / Elses tapet
9. Tapet i kirken
10. Krøllet tapet
11. Tango Fürwerkerai
12. Tydelig tapet!
13. Tapet for tre eller fire
14. Tango für Zigrid und Elze
15. Sigrids tapet
16. Tapet til folket!
17. Blipp tapet
18. Bonus Track: Barokk tapet
Еще один проект интересного норвежского композитора Eirik Hegdal. ( Trondheim Jazzorkester, Brat, Hegdal Quartet, samt i Zanussi Five и др.)
line up:
Eirik Hegdal : saksofoner
Tor Haugerud : perkusjon
Sigrid Stang : fiolin
Marianne Baudouin Lie : cello
Else Bø : piano
 
log
X Lossless Decoder version 20100711 (120.5)
XLD extraction logfile from 2010-07-17 23:07:27 +0200
Alpaca Ensemble / Tapet Tapet!
Used drive : MATSHITA DVD-R UJ-868 (revision KB19)
Use cdparanoia mode : YES (CDParanoia III 10.2 engine)
Disable audio cache : OK for the drive with cache less than 2750KB
Make use of C2 pointers : NO
Read offset correction : 102
Max retry count : 100
Gap status : Analyzed, Appended
TOC of the extracted CD
Track | Start | Length | Start sector | End sector
---------------------------------------------------------
1 | 00:00:00 | 03:12:46 | 0 | 14445
2 | 03:12:46 | 01:33:25 | 14446 | 21445
3 | 04:45:71 | 00:34:45 | 21446 | 24040
4 | 05:20:41 | 03:36:72 | 24041 | 40312
5 | 08:57:38 | 00:34:46 | 40313 | 42908
6 | 09:32:09 | 02:00:59 | 42909 | 51967
7 | 11:32:68 | 02:17:68 | 51968 | 62310
8 | 13:50:61 | 03:06:00 | 62311 | 76260
9 | 16:56:61 | 06:49:60 | 76261 | 106995
10 | 23:46:46 | 02:36:06 | 106996 | 118701
11 | 26:22:52 | 00:54:50 | 118702 | 122801
12 | 27:17:27 | 01:05:27 | 122802 | 127703
13 | 28:22:54 | 01:49:28 | 127704 | 135906
14 | 30:12:07 | 00:49:19 | 135907 | 139600
15 | 31:01:26 | 01:45:48 | 139601 | 147523
16 | 32:46:74 | 04:46:06 | 147524 | 168979
17 | 37:33:05 | 02:02:62 | 168980 | 178191
18 | 39:35:67 | 02:27:60 | 178192 | 189276
All Tracks
Album gain : -2.06 dB
Peak : 1.000000
Track 01
Filename : /Unsorted MP3/01 To be processed/Alpaca Ensemble - 2007 - Tapet Tapet!/01 - Tapet Tapet!!.flac
Pre-gap length : 00:02:00
Track gain : -0.86 dB
Peak : 0.981964
CRC32 hash (test run) : 7531C445
CRC32 hash : 7531C445
CRC32 hash (skip zero) : F8AC3939
AccurateRip signature : CAFAE897
->Track not present in AccurateRip database.
Statistics
Read error : 0
Skipped (treated as error) : 0
Edge jitter error (maybe fixed) : 0
Atom jitter error (maybe fixed) : 0
Drift error (maybe fixed) : 0
Dropped bytes error (maybe fixed) : 0
Duplicated bytes error (maybe fixed) : 0
Inconsistency in error sectors : 0
Track 02
Filename : /Unsorted MP3/01 To be processed/Alpaca Ensemble - 2007 - Tapet Tapet!/02 - Blandet tapet.flac
Track gain : 0.32 dB
Peak : 0.658936
CRC32 hash (test run) : A7E6FBE2
CRC32 hash : A7E6FBE2
CRC32 hash (skip zero) : 8B83449C
AccurateRip signature : 4F4F8CFB
->Track not present in AccurateRip database.
Statistics
Read error : 0
Skipped (treated as error) : 0
Edge jitter error (maybe fixed) : 0
Atom jitter error (maybe fixed) : 0
Drift error (maybe fixed) : 0
Dropped bytes error (maybe fixed) : 0
Duplicated bytes error (maybe fixed) : 0
Inconsistency in error sectors : 0
Track 03
Filename : /Unsorted MP3/01 To be processed/Alpaca Ensemble - 2007 - Tapet Tapet!/03 - Tango für Else.flac
Track gain : -4.49 dB
Peak : 0.986359
CRC32 hash (test run) : DDAD76E4
CRC32 hash : DDAD76E4
CRC32 hash (skip zero) : 3E05DB84
AccurateRip signature : 4A197706
->Track not present in AccurateRip database.
Statistics
Read error : 0
Skipped (treated as error) : 0
Edge jitter error (maybe fixed) : 0
Atom jitter error (maybe fixed) : 0
Drift error (maybe fixed) : 0
Dropped bytes error (maybe fixed) : 0
Duplicated bytes error (maybe fixed) : 0
Inconsistency in error sectors : 0
Track 04
Filename : /Unsorted MP3/01 To be processed/Alpaca Ensemble - 2007 - Tapet Tapet!/04 - Tapet unis.flac
Track gain : -3.05 dB
Peak : 0.987671
CRC32 hash (test run) : B2D573B7
CRC32 hash : B2D573B7
CRC32 hash (skip zero) : BA8D9694
AccurateRip signature : FFA3C8D4
->Track not present in AccurateRip database.
Statistics
Read error : 0
Skipped (treated as error) : 0
Edge jitter error (maybe fixed) : 0
Atom jitter error (maybe fixed) : 0
Drift error (maybe fixed) : 0
Dropped bytes error (maybe fixed) : 0
Duplicated bytes error (maybe fixed) : 0
Inconsistency in error sectors : 0
Track 05
Filename : /Unsorted MP3/01 To be processed/Alpaca Ensemble - 2007 - Tapet Tapet!/05 - Tapet original.flac
Track gain : -4.28 dB
Peak : 0.974426
CRC32 hash (test run) : F4DA87FC
CRC32 hash : F4DA87FC
CRC32 hash (skip zero) : 901FB603
AccurateRip signature : FD040FF0
->Track not present in AccurateRip database.
Statistics
Read error : 0
Skipped (treated as error) : 0
Edge jitter error (maybe fixed) : 0
Atom jitter error (maybe fixed) : 0
Drift error (maybe fixed) : 0
Dropped bytes error (maybe fixed) : 0
Duplicated bytes error (maybe fixed) : 0
Inconsistency in error sectors : 0
Track 06
Filename : /Unsorted MP3/01 To be processed/Alpaca Ensemble - 2007 - Tapet Tapet!/06 - Mariannes tapet.flac
Track gain : 0.15 dB
Peak : 0.699921
CRC32 hash (test run) : 3DF253DA
CRC32 hash : 3DF253DA
CRC32 hash (skip zero) : 2835A986
AccurateRip signature : B12EF5D0
->Track not present in AccurateRip database.
Statistics
Read error : 0
Skipped (treated as error) : 0
Edge jitter error (maybe fixed) : 0
Atom jitter error (maybe fixed) : 0
Drift error (maybe fixed) : 0
Dropped bytes error (maybe fixed) : 0
Duplicated bytes error (maybe fixed) : 0
Inconsistency in error sectors : 0
Track 07
Filename : /Unsorted MP3/01 To be processed/Alpaca Ensemble - 2007 - Tapet Tapet!/07 - Tapet perket.flac
Track gain : -0.41 dB
Peak : 1.000000
CRC32 hash (test run) : B757F9D5
CRC32 hash : B757F9D5
CRC32 hash (skip zero) : A19AA679
AccurateRip signature : 0A9B05A0
->Track not present in AccurateRip database.
Statistics
Read error : 0
Skipped (treated as error) : 0
Edge jitter error (maybe fixed) : 0
Atom jitter error (maybe fixed) : 0
Drift error (maybe fixed) : 0
Dropped bytes error (maybe fixed) : 0
Duplicated bytes error (maybe fixed) : 0
Inconsistency in error sectors : 0
Track 08
Filename : /Unsorted MP3/01 To be processed/Alpaca Ensemble - 2007 - Tapet Tapet!/08 - Bølget tapet / Elses tapet.flac
Track gain : 0.18 dB
Peak : 0.789337
CRC32 hash (test run) : 7561A6B5
CRC32 hash : 7561A6B5
CRC32 hash (skip zero) : 2A25578A
AccurateRip signature : 358B1B99
->Track not present in AccurateRip database.
Statistics
Read error : 0
Skipped (treated as error) : 0
Edge jitter error (maybe fixed) : 0
Atom jitter error (maybe fixed) : 0
Drift error (maybe fixed) : 0
Dropped bytes error (maybe fixed) : 0
Duplicated bytes error (maybe fixed) : 0
Inconsistency in error sectors : 0
Track 09
Filename : /Unsorted MP3/01 To be processed/Alpaca Ensemble - 2007 - Tapet Tapet!/09 - Tapet i kirken.flac
Track gain : 0.71 dB
Peak : 0.781952
CRC32 hash (test run) : 8336563C
CRC32 hash : 8336563C
CRC32 hash (skip zero) : F495F77A
AccurateRip signature : 142B06E8
->Track not present in AccurateRip database.
Statistics
Read error : 0
Skipped (treated as error) : 0
Edge jitter error (maybe fixed) : 0
Atom jitter error (maybe fixed) : 0
Drift error (maybe fixed) : 0
Dropped bytes error (maybe fixed) : 0
Duplicated bytes error (maybe fixed) : 0
Inconsistency in error sectors : 0
Track 10
Filename : /Unsorted MP3/01 To be processed/Alpaca Ensemble - 2007 - Tapet Tapet!/10 - Krøllet tapet.flac
Track gain : -3.41 dB
Peak : 0.999969
CRC32 hash (test run) : 927E28B3
CRC32 hash : 927E28B3
CRC32 hash (skip zero) : E3AE1C33
AccurateRip signature : 786741D7
->Track not present in AccurateRip database.
Statistics
Read error : 0
Skipped (treated as error) : 0
Edge jitter error (maybe fixed) : 0
Atom jitter error (maybe fixed) : 0
Drift error (maybe fixed) : 0
Dropped bytes error (maybe fixed) : 0
Duplicated bytes error (maybe fixed) : 0
Inconsistency in error sectors : 0
Track 11
Filename : /Unsorted MP3/01 To be processed/Alpaca Ensemble - 2007 - Tapet Tapet!/11 - Tango Fürwerkerai.flac
Track gain : -2.84 dB
Peak : 0.986420
CRC32 hash (test run) : ABF03719
CRC32 hash : ABF03719
CRC32 hash (skip zero) : 223C5120
AccurateRip signature : CEF2B51B
->Track not present in AccurateRip database.
Statistics
Read error : 0
Skipped (treated as error) : 0
Edge jitter error (maybe fixed) : 0
Atom jitter error (maybe fixed) : 0
Drift error (maybe fixed) : 0
Dropped bytes error (maybe fixed) : 0
Duplicated bytes error (maybe fixed) : 0
Inconsistency in error sectors : 0
Track 12
Filename : /Unsorted MP3/01 To be processed/Alpaca Ensemble - 2007 - Tapet Tapet!/12 - Tydelig tapet!.flac
Track gain : -1.91 dB
Peak : 0.982300
CRC32 hash (test run) : DDA61C99
CRC32 hash : DDA61C99
CRC32 hash (skip zero) : 72BDFD32
AccurateRip signature : 390B3DF7
->Track not present in AccurateRip database.
Statistics
Read error : 0
Skipped (treated as error) : 0
Edge jitter error (maybe fixed) : 0
Atom jitter error (maybe fixed) : 0
Drift error (maybe fixed) : 0
Dropped bytes error (maybe fixed) : 0
Duplicated bytes error (maybe fixed) : 0
Inconsistency in error sectors : 0
Track 13
Filename : /Unsorted MP3/01 To be processed/Alpaca Ensemble - 2007 - Tapet Tapet!/13 - Tapet for tre eller fire.flac
Track gain : 1.09 dB
Peak : 0.999969
CRC32 hash (test run) : FC8FE16F
CRC32 hash : FC8FE16F
CRC32 hash (skip zero) : F498DD65
AccurateRip signature : BDA1F388
->Track not present in AccurateRip database.
Statistics
Read error : 0
Skipped (treated as error) : 0
Edge jitter error (maybe fixed) : 0
Atom jitter error (maybe fixed) : 0
Drift error (maybe fixed) : 0
Dropped bytes error (maybe fixed) : 0
Duplicated bytes error (maybe fixed) : 0
Inconsistency in error sectors : 0
Track 14
Filename : /Unsorted MP3/01 To be processed/Alpaca Ensemble - 2007 - Tapet Tapet!/14 - Tango für Zigrid und Elze.flac
Track gain : -1.95 dB
Peak : 0.696777
CRC32 hash (test run) : 04E4D9A2
CRC32 hash : 04E4D9A2
CRC32 hash (skip zero) : 5093B00A
AccurateRip signature : DEA2ADBA
->Track not present in AccurateRip database.
Statistics
Read error : 0
Skipped (treated as error) : 0
Edge jitter error (maybe fixed) : 0
Atom jitter error (maybe fixed) : 0
Drift error (maybe fixed) : 0
Dropped bytes error (maybe fixed) : 0
Duplicated bytes error (maybe fixed) : 0
Inconsistency in error sectors : 0
Track 15
Filename : /Unsorted MP3/01 To be processed/Alpaca Ensemble - 2007 - Tapet Tapet!/15 - Sigrids tapet.flac
Track gain : 4.39 dB
Peak : 0.426117
CRC32 hash (test run) : 7CD501EE
CRC32 hash : 7CD501EE
CRC32 hash (skip zero) : A56EC31A
AccurateRip signature : 023167CD
->Track not present in AccurateRip database.
Statistics
Read error : 0
Skipped (treated as error) : 0
Edge jitter error (maybe fixed) : 0
Atom jitter error (maybe fixed) : 0
Drift error (maybe fixed) : 0
Dropped bytes error (maybe fixed) : 0
Duplicated bytes error (maybe fixed) : 0
Inconsistency in error sectors : 0
Track 16
Filename : /Unsorted MP3/01 To be processed/Alpaca Ensemble - 2007 - Tapet Tapet!/16 - Tapet til folket!.flac
Track gain : -3.19 dB
Peak : 0.992676
CRC32 hash (test run) : 73443F90
CRC32 hash : 73443F90
CRC32 hash (skip zero) : 1ED40A64
AccurateRip signature : 2759D536
->Track not present in AccurateRip database.
Statistics
Read error : 0
Skipped (treated as error) : 0
Edge jitter error (maybe fixed) : 0
Atom jitter error (maybe fixed) : 0
Drift error (maybe fixed) : 0
Dropped bytes error (maybe fixed) : 0
Duplicated bytes error (maybe fixed) : 0
Inconsistency in error sectors : 0
Track 17
Filename : /Unsorted MP3/01 To be processed/Alpaca Ensemble - 2007 - Tapet Tapet!/17 - Blipp tapet.flac
Track gain : 4.33 dB
Peak : 0.807556
CRC32 hash (test run) : 7EBC8706
CRC32 hash : 7EBC8706
CRC32 hash (skip zero) : A97406B0
AccurateRip signature : 1FC92664
->Track not present in AccurateRip database.
Statistics
Read error : 0
Skipped (treated as error) : 0
Edge jitter error (maybe fixed) : 0
Atom jitter error (maybe fixed) : 0
Drift error (maybe fixed) : 0
Dropped bytes error (maybe fixed) : 0
Duplicated bytes error (maybe fixed) : 0
Inconsistency in error sectors : 0
Track 18
Filename : /Unsorted MP3/01 To be processed/Alpaca Ensemble - 2007 - Tapet Tapet!/18 - Bonus Track: Barokk tapet.flac
Pre-gap length : 00:24:74
Track gain : -1.04 dB
Peak : 0.652374
CRC32 hash (test run) : FADD0C10
CRC32 hash : FADD0C10
CRC32 hash (skip zero) : A1031ACA
AccurateRip signature : 9E799E87
->Track not present in AccurateRip database.
Statistics
Read error : 0
Skipped (treated as error) : 0
Edge jitter error (maybe fixed) : 0
Atom jitter error (maybe fixed) : 0
Drift error (maybe fixed) : 0
Dropped bytes error (maybe fixed) : 0
Duplicated bytes error (maybe fixed) : 0
Inconsistency in error sectors : 0
No errors occurred
End of status report
 
cue
TITLE "Tapet Tapet!"
PERFORMER "Alpaca Ensemble"
CATALOG 7041888803928
REM DATE "2007"
REM DISCID 0D09DB12
FILE "01 - Tapet Tapet!!.wav" WAVE
TRACK 01 AUDIO
TITLE "Tapet Tapet!!"
ISRC NOBZH0739010
INDEX 01 00:00:00
FILE "02 - Blandet tapet.wav" WAVE
TRACK 02 AUDIO
TITLE "Blandet tapet"
ISRC NOBZH0739020
INDEX 01 00:00:00
FILE "03 - Tango für Else.wav" WAVE
TRACK 03 AUDIO
TITLE "Tango für Else"
ISRC NOBZH0739030
INDEX 01 00:00:00
FILE "04 - Tapet unis.wav" WAVE
TRACK 04 AUDIO
TITLE "Tapet unis"
ISRC NOBZH0739040
INDEX 01 00:00:00
FILE "05 - Tapet original.wav" WAVE
TRACK 05 AUDIO
TITLE "Tapet original"
ISRC NOBZH0739050
INDEX 01 00:00:00
FILE "06 - Mariannes tapet.wav" WAVE
TRACK 06 AUDIO
TITLE "Mariannes tapet"
ISRC NOBZH0739060
INDEX 01 00:00:00
FILE "07 - Tapet perket.wav" WAVE
TRACK 07 AUDIO
TITLE "Tapet perket"
ISRC NOBZH0739070
INDEX 01 00:00:00
FILE "08 - Bølget tapet / Elses tapet.wav" WAVE
TRACK 08 AUDIO
TITLE "Bølget tapet / Elses tapet"
ISRC NOBZH0739080
INDEX 01 00:00:00
FILE "09 - Tapet i kirken.wav" WAVE
TRACK 09 AUDIO
TITLE "Tapet i kirken"
ISRC NOBZH0739090
INDEX 01 00:00:00
FILE "10 - Krøllet tapet.wav" WAVE
TRACK 10 AUDIO
TITLE "Krøllet tapet"
ISRC NOBZH0739100
INDEX 01 00:00:00
FILE "11 - Tango Fürwerkerai.wav" WAVE
TRACK 11 AUDIO
TITLE "Tango Fürwerkerai"
ISRC NOBZH0739110
INDEX 01 00:00:00
FILE "12 - Tydelig tapet!.wav" WAVE
TRACK 12 AUDIO
TITLE "Tydelig tapet!"
ISRC NOBZH0739120
INDEX 01 00:00:00
FILE "13 - Tapet for tre eller fire.wav" WAVE
TRACK 13 AUDIO
TITLE "Tapet for tre eller fire"
ISRC NOBZH0739130
INDEX 01 00:00:00
FILE "14 - Tango für Zigrid und Elze.wav" WAVE
TRACK 14 AUDIO
TITLE "Tango für Zigrid und Elze"
ISRC NOBZH0739140
INDEX 01 00:00:00
FILE "15 - Sigrids tapet.wav" WAVE
TRACK 15 AUDIO
TITLE "Sigrids tapet"
ISRC NOBZH0739150
INDEX 01 00:00:00
FILE "16 - Tapet til folket!.wav" WAVE
TRACK 16 AUDIO
TITLE "Tapet til folket!"
ISRC NOBZH0739160
INDEX 01 00:00:00
FILE "17 - Blipp tapet.wav" WAVE
TRACK 17 AUDIO
TITLE "Blipp tapet"
ISRC NOBZH0739180
INDEX 01 00:00:00
TRACK 18 AUDIO
TITLE "Bonus Track: Barokk tapet"
ISRC NOBZH0739180
INDEX 00 01:37:63
FILE "18 - Bonus Track: Barokk tapet.wav" WAVE
INDEX 01 00:00:00

Рип by zopatista

По всем вопросам пишите личное сообщение пользователю M0p94ok.
01:20
144
Нет комментариев. Ваш будет первым!