Вы используете незарегистрированную версию компонента "Вкладки"!

Поиск

(Modern Creative / Post-Bop) Steuart Liebig - Quartetto Stig: Lingua Oscura - 1995, FLAC (image+.cue), lossless

Треклист:
Steuart Liebig - Quartetto Stig: Lingua Oscura

Жанр: Modern Creative / Post-Bop
Год выпуска диска: 1995
Производитель диска: Nine Winds NWCD0173; USA
Аудио кодек: FLAC
Тип рипа: image+.cue
Битрейт аудио: lossless
Продолжительность: 1:13:48
John Fumo: trumpet, flugelhorn, cornet
Jeff Gauthier: 4 and 5-string electric violins
Dan Morris: drums, glockenspiel
Steuart Liebig: contrabass guitars
1. Seed
2. Plums and Apricots Falling from the Sky
3. Nef
4. Your Name Here
5. Una Señal de Soledad
6. Ten Pielke Duinigies For
7. Ohne Name
8. Terribilia Meditans
9. Liquid Speedball
10. A Rose Is Eros
11. Exploded Sky
12. Coda
 
EAC Report
Exact Audio Copy V0.99 prebeta 4 from 23. January 2008
EAC extraction logfile from 6. March 2010, 19:47
Steuart Liebig / Quartetto Stig: Lingua Oscura
Used drive : TSSTcorpCD/DVDW SH-S182M Adapter: 2 ID: 0
Read mode : Secure
Utilize accurate stream : Yes
Defeat audio cache : Yes
Make use of C2 pointers : No
Read offset correction : 6
Overread into Lead-In and Lead-Out : No
Fill up missing offset samples with silence : Yes
Delete leading and trailing silent blocks : No
Null samples used in CRC calculations : Yes
Used interface : Installed external ASPI interface
Used output format : User Defined Encoder
Selected bitrate : 1024 kBit/s
Quality : High
Add ID3 tag : No
Command line compressor : C:\Program Files\Exact Audio Copy\Flac\flac.exe
Additional command line options : -6 -V -T "ARTIST=%a" -T "TITLE=%t" -T "ALBUM=%g" -T "DATE=%y" -T "TRACKNUMBER=%n" -T "GENRE=%m" -T "COMMENT=EAC FLAC -6" %s
TOC of the extracted CD
Track | Start | Length | Start sector | End sector
---------------------------------------------------------
1 | 0:00.00 | 4:22.10 | 0 | 19659
2 | 4:22.10 | 1:39.32 | 19660 | 27116
3 | 6:01.42 | 8:28.58 | 27117 | 65274
4 | 14:30.25 | 3:59.37 | 65275 | 83236
5 | 18:29.62 | 9:56.30 | 83237 | 127966
6 | 28:26.17 | 5:53.43 | 127967 | 154484
7 | 34:19.60 | 4:20.45 | 154485 | 174029
8 | 38:40.30 | 15:11.35 | 174030 | 242389
9 | 53:51.65 | 5:51.52 | 242390 | 268766
10 | 59:43.42 | 3:56.30 | 268767 | 286496
11 | 63:39.72 | 1:18.18 | 286497 | 292364
12 | 64:58.15 | 8:49.52 | 292365 | 332091
Range status and errors
Selected range
Filename C:\Users\Igor\Music\eac\Steuart Liebig - Quartetto Stig Lingua Oscura.wav
Peak level 100.0 %
Range quality 100.0 %
Test CRC 98FE2B14
Copy CRC 98FE2B14
Copy OK
No errors occurred
AccurateRip summary
Track 1 not present in database
Track 2 not present in database
Track 3 not present in database
Track 4 not present in database
Track 5 not present in database
Track 6 not present in database
Track 7 not present in database
Track 8 not present in database
Track 9 not present in database
Track 10 not present in database
Track 11 not present in database
Track 12 not present in database
None of the tracks are present in the AccurateRip database
End of status report

рип собственный
Steuart Liebig - Quartetto Stig: Hommages Obliques (1993) k4r70x4
Any questions -> support@pro-jazz.com. По всем вопросам пишите -> support@pro-jazz.com
01:21
134
Нет комментариев. Ваш будет первым!