Вы используете незарегистрированную версию компонента "Вкладки"!

Поиск

(Free Jazz, Free Improvisation) Peter Brotzmann & Paal Nilssen-Love - Woodcuts - 2010, FLAC (tracks), lossless

(Free Jazz, Free Improvisation) Peter Brotzmann & Paal Nilssen-Love - Woodcuts - 2010, FLAC (tracks), lossless
Треклист:
Peter Brötzmann & Paal Nilssen-Love - Woodcuts
Жанр: Free Jazz, Free Improvisation
Год выпуска диска: 2010
Производитель диска: Smalltown Superjazzz (STSJ170CD)
Источник: вот.сиди (bukethepuke)
Аудио кодек: FLAC
Тип рипа: tracks
Битрейт аудио: lossless
Продолжительность: 58:01
Треклист:
1. Wood Cuts (12:46)
2. Glasgow Kiss (7:59)
3. Strong And Thin (5:49)
4. Rode Hard And Put Up Wet (18:36)
5. Ye Gods And Little Fishes (8:51)
6. Knucklin (3:57)
recorded Oct 19, 2008
Peter Brötzmann - alto, tenor saxophones, clarinet, tarogato
Paal Nilssen-Love - drums
 
Отчёт EAC
Exact Audio Copy V0.99 prebeta 5 from 4. May 2009
EAC extraction logfile from 14. July 2010, 20:14
Paal Nilssen-Love / Peter Brotzmann / Wood Cuts
Used drive : TSSTcorpDVD+-RW TS-H653A Adapter: 0 ID: 1
Read mode : Secure
Utilize accurate stream : Yes
Defeat audio cache : Yes
Make use of C2 pointers : No
Read offset correction : 6
Overread into Lead-In and Lead-Out : No
Fill up missing offset samples with silence : Yes
Delete leading and trailing silent blocks : No
Null samples used in CRC calculations : Yes
Used interface : Native Win32 interface for Win NT & 2000
Gap handling : Appended to previous track
Used output format : User Defined Encoder
Selected bitrate : 320 kBit/s
Quality : High
Add ID3 tag : No
Command line compressor : C:\Program Files\Exact Audio Copy\Flac\flac.exe
Additional command line options : -V -8 -T "artist=%a" -T "title=%t" -T "album=%g" -T "date=%y" -T "tracknumber=%n" -T "genre=%m" %s
TOC of the extracted CD
Track | Start | Length | Start sector | End sector
---------------------------------------------------------
1 | 0:00.00 | 12:46.67 | 0 | 57516
2 | 12:46.67 | 7:59.16 | 57517 | 93457
3 | 20:46.08 | 5:49.60 | 93458 | 119692
4 | 26:35.68 | 18:36.21 | 119693 | 203413
5 | 45:12.14 | 8:51.30 | 203414 | 243268
6 | 54:03.44 | 3:57.43 | 243269 | 261086
Track 1
Filename F:\Paal Nilssen-Love , Peter Brotzmann - 2008 - Wood Cuts [FLAC]\01 - Wood Cuts.wav
Pre-gap length 0:00:02.00
Peak level 98.8 %
Track quality 100.0 %
Test CRC 475E38C6
Copy CRC 475E38C6
Accurately ripped (confidence 2) [FD6C5E2F]
Copy OK
Track 2
Filename F:\Paal Nilssen-Love , Peter Brotzmann - 2008 - Wood Cuts [FLAC]\02 - Glasgow Kiss.wav
Peak level 98.8 %
Track quality 100.0 %
Test CRC 608057E5
Copy CRC 608057E5
Accurately ripped (confidence 2) [7995F781]
Copy OK
Track 3
Filename F:\Paal Nilssen-Love , Peter Brotzmann - 2008 - Wood Cuts [FLAC]\03 - Strong and Thin.wav
Pre-gap length 0:00:00.01
Peak level 98.8 %
Track quality 100.0 %
Test CRC 460DB037
Copy CRC 460DB037
Accurately ripped (confidence 2) [CF641516]
Copy OK
Track 4
Filename F:\Paal Nilssen-Love , Peter Brotzmann - 2008 - Wood Cuts [FLAC]\04 - Rode Hard and Put Up Wet.wav
Pre-gap length 0:00:00.01
Peak level 98.8 %
Track quality 100.0 %
Test CRC DD432E3F
Copy CRC DD432E3F
Accurately ripped (confidence 2) [A28E27DF]
Copy OK
Track 5
Filename F:\Paal Nilssen-Love , Peter Brotzmann - 2008 - Wood Cuts [FLAC]\05 - Ye Gods and Little Fishes.wav
Pre-gap length 0:00:00.01
Peak level 98.8 %
Track quality 100.0 %
Test CRC 633D5647
Copy CRC 633D5647
Accurately ripped (confidence 2) [F035D244]
Copy OK
Track 6
Filename F:\Paal Nilssen-Love , Peter Brotzmann - 2008 - Wood Cuts [FLAC]\06 - Knucklin.wav
Pre-gap length 0:00:00.01
Peak level 98.8 %
Track quality 100.0 %
Test CRC CDB77AA7
Copy CRC CDB77AA7
Accurately ripped (confidence 2) [03B89C11]
Copy OK
All tracks accurately ripped
No errors occurred
End of status report
 
Отчёт Audiocheckera
AUDIOCHECKER v2.0 beta (build 457) - by Dester - opdester@freemail.hu
~~~~~~~~~~~~~~~~~~~~~~~~~~~~~~~~~~
-=== DO NOT EDIT THIS FILE! ===-
Path: ...\Paal Nilssen-Love , Peter Brotzmann - 2008 - Wood Cuts [FLAC]
1 -=- 01 - Wood Cuts.flac -=- CDDA (100%)
2 -=- 02 - Glasgow Kiss.flac -=- CDDA (100%)
3 -=- 03 - Strong and Thin.flac -=- CDDA (100%)
4 -=- 04 - Rode Hard and Put Up Wet.flac -=- CDDA (100%)
5 -=- 05 - Ye Gods and Little Fishes.flac -=- CDDA (100%)
6 -=- 06 - Knucklin.flac -=- CDDA (100%)
Summary 100,00% CDDA
160637188
Any questions -> support@pro-jazz.com. По всем вопросам пишите -> support@pro-jazz.com
01:19
162
Нет комментариев. Ваш будет первым!