Вы используете незарегистрированную версию компонента "Вкладки"!

Поиск

(Free Jazz/CIMP) John Gunther Trio - In This World - 2004, FLAC (image+.cue), lossless

Треклист:
John Gunther Trio - In This World
Жанр: Free Jazz/CIMP
Год выпуска диска: 2004
Производитель диска: CIMP (USA)
Аудио кодек: FLAC
Тип рипа: image+.cue
Битрейт аудио: lossless
Продолжительность: 67:05
Треклист:
01 Sneaky Blues
02 Another Stroll
03 Marksman
04 Ruby My Dear
05 Get the Low Down
06 Cowboy Type Tune
07 Waltz for Paige
08 In This World
09 Anthem for Hope
Joh Gunther bass clarinet, soprano & tenor saxes
Leo Huppert bass
Jay Rosen drums
Recorded at the Spirit Room NY, Oct 13, 2004
Доп. информация: в сканах
Источник: рип мой
 
отчёт ЕАС
Exact Audio Copy V0.99 prebeta 5 from 4. May 2009
EAC extraction logfile from 15. July 2010, 20:36
John Gunther Trio / In This World
Used drive : Optiarc DVD RW AD-5200S Adapter: 1 ID: 0
Read mode : Secure
Utilize accurate stream : Yes
Defeat audio cache : Yes
Make use of C2 pointers : No
Read offset correction : 48
Overread into Lead-In and Lead-Out : No
Fill up missing offset samples with silence : Yes
Delete leading and trailing silent blocks : No
Null samples used in CRC calculations : Yes
Used interface : Installed external ASPI interface
Used output format : User Defined Encoder
Selected bitrate : 192 kBit/s
Quality : High
Add ID3 tag : No
Command line compressor : C:\Program Files\Burrrn\flac.exe
Additional command line options : -T "DATE=%y" -T "GENRE=%m" -8 -V %s
TOC of the extracted CD
Track | Start | Length | Start sector | End sector
---------------------------------------------------------
1 | 0:00.00 | 8:42.23 | 0 | 39172
2 | 8:42.23 | 7:09.21 | 39173 | 71368
3 | 15:51.44 | 3:23.47 | 71369 | 86640
4 | 19:15.16 | 8:51.19 | 86641 | 126484
5 | 28:06.35 | 4:40.25 | 126485 | 147509
6 | 32:46.60 | 8:30.45 | 147510 | 185804
7 | 41:17.30 | 9:29.01 | 185805 | 228480
8 | 50:46.31 | 10:25.46 | 228481 | 275401
9 | 61:12.02 | 5:53.12 | 275402 | 301888
Range status and errors
Selected range
Filename C:\EAC\Новая папка\John Gunther Trio - In This World.wav
Peak level 92.7 %
Range quality 100.0 %
Test CRC 0873ABB2
Copy CRC 0873ABB2
Copy OK
No errors occurred
AccurateRip summary
Track 1 not present in database
Track 2 not present in database
Track 3 not present in database
Track 4 not present in database
Track 5 not present in database
Track 6 not present in database
Track 7 not present in database
Track 8 not present in database
Track 9 not present in database
None of the tracks are present in the AccurateRip database
End of status report
По всем вопросам пишите личное сообщение пользователю M0p94ok.
01:19
159
Нет комментариев. Ваш будет первым!