Поиск

(Noise, Avant-Garde, Experimental) [CD] Weasel Walter, Fred Lonberg-Holm, Jim O'Rourke - Tribute to Masayuki Takayanagi - 2000, FLAC (tracks+.cue), lossless

(Noise, Avant-Garde, Experimental) [CD] Weasel Walter, Fred Lonberg-Holm, Jim O'Rourke - Tribute to Masayuki Takayanagi - 2000, FLAC (tracks+.cue), lossless
Треклист:
Weasel Walter, Fred Lonberg-Holm, Jim O'Rourke - Tribute to Masayuki Takayanagi
Жанр: Noise, Avant-Garde, Experimental
Носитель: CD
Страна-производитель диска: Германия
Год издания: 2000
Издатель (лейбл): GROB
Номер по каталогу: 208
Аудиокодек: FLAC (*.flac)
Тип рипа: tracks+.cue
Битрейт аудио: lossless
Продолжительность: 73:58
Источник (релизер): pjc (what)
Наличие сканов в содержимом раздачи: нет
Треклист:
01. For Jojo/Freebasing Styrofoam (31:23)
02. Endless Corridor of Roasted Babies (10:57)
03. Slitted Tit (4:02)
04. Give Me Head Till You're Dead (15:25)
05. Triumph of Death (12:11)
Состав:
Weasel Walter - drums, 12-string guitar
Fred Lonberg-Holm - electric cello
Jim O'Rourke - electric guitar, apparition guitar
Recording Dates:
Track 1 on 13 July 1996 live at 6ODUM, Chicago.
Tracks 2 to 4 on 26 February 2000 at ugEXPLODE studios, Chicago.
Track 5 on 5 April 2000 in Hell.
 
Лог создания рипа
Exact Audio Copy V0.99 prebeta 5 from 4. May 2009
EAC extraction logfile from 20. January 2011, 12:00
Weasel Walter / Fred Lonberg-Holm / Jim O'Rourke / Tribute To Masayuki Takayanagi
Used drive : HL-DT-STDVDRAM GSA-4167B Adapter: 0 ID: 0
Read mode : Secure
Utilize accurate stream : Yes
Defeat audio cache : Yes
Make use of C2 pointers : No
Read offset correction : 667
Overread into Lead-In and Lead-Out : No
Fill up missing offset samples with silence : Yes
Delete leading and trailing silent blocks : No
Null samples used in CRC calculations : Yes
Used interface : Installed external ASPI interface
Gap handling : Appended to previous track
Used output format : User Defined Encoder
Selected bitrate : 768 kBit/s
Quality : High
Add ID3 tag : No
Command line compressor : C:\Program Files\Exact Audio Copy\FLAC\FLAC.EXE
Additional command line options : -V -8 -T "artist=%a" -T "title=%t" -T "album=%g" -T "date=%y" -T "tracknumber=%n" -T "genre=%m" %s
TOC of the extracted CD
Track | Start | Length | Start sector | End sector
---------------------------------------------------------
1 | 0:00.00 | 31:22.66 | 0 | 141215
2 | 31:22.66 | 10:57.06 | 141216 | 190496
3 | 42:19.72 | 4:02.06 | 190497 | 208652
4 | 46:22.03 | 15:25.06 | 208653 | 278033
5 | 61:47.09 | 12:10.58 | 278034 | 332841
Track 1
Filename Q:\Rips\Weasel Walter, Fred Lonberg-Holm, Jim O'Rourke - Tribute To Masayuki Takayanagi\01 - Weasel Walter , Fred Lonberg-Holm , Jim O'Rourke - For Jojo , Freebasing Styrofoam.wav
Pre-gap length 0:00:02.00
Peak level 74.3 %
Track quality 100.0 %
Test CRC 6E9F28EE
Copy CRC 6E9F28EE
Track not present in AccurateRip database
Copy OK
Track 2
Filename Q:\Rips\Weasel Walter, Fred Lonberg-Holm, Jim O'Rourke - Tribute To Masayuki Takayanagi\02 - Weasel Walter , Fred Lonberg-Holm , Jim O'Rourke - Endless Corridor Of Roasted Babies.wav
Pre-gap length 0:00:05.52
Peak level 98.0 %
Track quality 100.0 %
Test CRC E38AC261
Copy CRC E38AC261
Track not present in AccurateRip database
Copy OK
Track 3
Filename Q:\Rips\Weasel Walter, Fred Lonberg-Holm, Jim O'Rourke - Tribute To Masayuki Takayanagi\03 - Weasel Walter , Fred Lonberg-Holm , Jim O'Rourke - Slitted Tit.wav
Pre-gap length 0:00:05.00
Peak level 85.4 %
Track quality 99.9 %
Test CRC 2B66711B
Copy CRC 2B66711B
Track not present in AccurateRip database
Copy OK
Track 4
Filename Q:\Rips\Weasel Walter, Fred Lonberg-Holm, Jim O'Rourke - Tribute To Masayuki Takayanagi\04 - Weasel Walter , Fred Lonberg-Holm , Jim O'Rourke - Give Me Head Till You're Dead.wav
Pre-gap length 0:00:05.55
Peak level 98.0 %
Track quality 100.0 %
Test CRC 5F356075
Copy CRC 5F356075
Track not present in AccurateRip database
Copy OK
Track 5
Filename Q:\Rips\Weasel Walter, Fred Lonberg-Holm, Jim O'Rourke - Tribute To Masayuki Takayanagi\05 - Weasel Walter , Fred Lonberg-Holm , Jim O'Rourke - Triumph Of Death.wav
Pre-gap length 0:00:13.49
Peak level 79.4 %
Track quality 100.0 %
Test CRC 1F4BF39A
Copy CRC 1F4BF39A
Track not present in AccurateRip database
Copy OK
None of the tracks are present in the AccurateRip database
No errors occurred
End of status report
 
Содержание индексной карты (.CUE)
REM GENRE Avant-Garde
REM DATE 2000
REM DISCID 4B115505
REM COMMENT "ExactAudioCopy v0.99pb5"
PERFORMER "Weasel Walter"
TITLE "Tribute to Masayuki Takayanagi"
FILE "01 - For Jojo-Freebasing Styrofoam.wav" WAVE
TRACK 01 AUDIO
TITLE "For Jojo/Freebasing Styrofoam"
PERFORMER "Weasel Walter"
INDEX 01 00:00:00
TRACK 02 AUDIO
TITLE "Endless Corridor of Roasted Babies"
PERFORMER "Weasel Walter"
INDEX 00 31:17:14
FILE "02 - Endless Corridor of Roasted Babies.wav" WAVE
INDEX 01 00:00:00
TRACK 03 AUDIO
TITLE "Slitted Tit"
PERFORMER "Weasel Walter"
INDEX 00 10:52:06
FILE "03 - Slitted Tit.wav" WAVE
INDEX 01 00:00:00
TRACK 04 AUDIO
TITLE "Give Me Head Till You're Dead"
PERFORMER "Weasel Walter"
INDEX 00 03:56:26
FILE "04 - Give Me Head Till You're Dead.wav" WAVE
INDEX 01 00:00:00
TRACK 05 AUDIO
TITLE "Triumph of Death"
PERFORMER "Weasel Walter"
INDEX 00 15:11:32
FILE "05 - Triumph of Death.wav" WAVE
INDEX 01 00:00:00
 
Review by Francois Couture
It looks like a very cheesy death metal record: a cover with a picture of butchers cutting a carcass open, horrible "sex & violence"-related titles like "Endless Corridors of Roasted Babies" and "Give Me Head 'Til You're Dead," a note that says "Play loud and die." But it's all an act, as revealed but the way too surreal pseudonyms and stage costumes adopted by the three musicians. Drummer/guitarist Weasel Walter, aka "Necrodevourer," looks like he had problems shaving; cellist Fred Lonberg-Holm, aka "Sado-immolator" makes a very bad impression of The Addams Family's Lurch; while Jim O'Rourke, aka "Lycanthrovampyr," could be the fifth member of Kiss (this one's a treat -- anyone trying to relate this photo to his work in Gastr Del Sol will have a problem).
This CD, as the title stipulates, is a tribute to extreme noisician Masayuki Takayanagi, particularly to his cello/guitar/drums trio New Direction Unit. Track one is a 30-minute-long improvisation recorded live at 6ODUM, in Chicago on July 13, 1996. Lonberg-Holm goes way beyond anything he previously recorded, proving how much decibels a cello can provide, while Walter bashes on the drums like the demon he tries to look like. Hearing Jim O'Rourke on electric guitar is a treat, since his late-'90s activities focused more on computer/mini-disc. But the music doesn't quite reach the "wall of sound" level of some other noise artists. There are pauses to breathe. The next three pieces were recorded in the studio almost four years later, in February 2000. The music gets more extreme, closer to Merzbow (plus drums): it would be impossible to differentiate the cello from the guitars if it weren't for the stereo panning indications given -- all noise. The last track, "Triumph of Death," is a solo electronic piece by Weasel Walter, a meditative soundscape of the underworld. Tribute to Masayuki Takayanagi pairs extreme musicianship with questionable bad taste. If anything, it gives an occasion to hear these three musicians in a very unusual setting.
По всем вопросам пишите личное сообщение пользователю M0p94ok.
06:08
192
Нет комментариев. Ваш будет первым!