Вы используете незарегистрированную версию компонента "Вкладки"!

Поиск

(Free Improvisation) [CD] Carl Ludwig Hubsch's Longrun Development Of The Universe (Matthias Schubert, Wolter Wierbos) - The Universe Is A Disk - 2008, FLAC (tracks+.cue), lossless

(Free Improvisation) [CD] Carl Ludwig Hubsch's Longrun Development Of The Universe (Matthias Schubert, Wolter Wierbos) - The Universe Is A Disk - 2008, FLAC (tracks+.cue), lossless
Треклист:
Carl Ludwig Hübsch's Longrun Development Of The Universe / The Universe Is A Disk
Жанр: Free Improvisation
Носитель: CD
Страна-производитель диска: UK
Год издания: 2008
Издатель (лейбл): Leo Records
Номер по каталогу: CD LR 525
Аудиокодек: FLAC (*.flac)
Тип рипа: tracks+.cue
Битрейт аудио: lossless
Продолжительность: 61:39
Источник (релизер): whatcd (6060842)
Наличие сканов в содержимом раздачи: нет
Треклист:
1 The Common Determinator 7:06
2 Common Indetermination 5:14
3 Another Determinator 8:43
4 Von Ohr Zu Ohr 5:17
5 Floating Fragmants Part 2 9:32
6 Floating Fragmants Part 3 11:25
7 Articulations 6:47
8 Floating Fragmants Part 1 3:46
9 Elefantenrunde 3:44
 
Лог создания рипа
X Lossless Decoder version 20130602 (143.2)
XLD extraction logfile from 2013-06-13 16:41:37 +0400
Carl Ludwig Hübsch's Longrun Development Of The Universe / The Universe Is a Disk
Used drive : HL-DT-ST DVDRW GX30N (revision RP09)
Media type : Pressed CD
Ripper mode : XLD Secure Ripper
Disable audio cache : OK for the drive with a cache less than 1375KiB
Make use of C2 pointers : NO
Read offset correction : 6
Max retry count : 100
Gap status : Analyzed, Appended (except HTOA)
TOC of the extracted CD
Track | Start | Length | Start sector | End sector
---------------------------------------------------------
1 | 00:00:00 | 07:06:61 | 0 | 32010
2 | 07:06:61 | 05:14:24 | 32011 | 55584
3 | 12:21:10 | 08:43:60 | 55585 | 94869
4 | 21:04:70 | 05:17:41 | 94870 | 118685
5 | 26:22:36 | 09:32:61 | 118686 | 161646
6 | 35:55:22 | 11:25:02 | 161647 | 213023
7 | 47:20:24 | 06:47:21 | 213024 | 243569
8 | 54:07:45 | 03:46:70 | 243570 | 260589
9 | 57:54:40 | 03:44:42 | 260590 | 277431
AccurateRip Summary
Disc not found in AccurateRip DB.
All Tracks
Album gain : -3.01 dB
Peak : 0.977753
Statistics
Read error : 0
Jitter error (maybe fixed) : 0
Retry sector count : 0
Damaged sector count : 0
Track 01
Filename : /Users/anch/Music/FLAC/Carl Ludwig Hubsch's Longrun Development Of The Universe - 2008 - The Universe Is a Disk [MP3 320]/01 - The Common Determinator.mp3
/Users/anch/Music/FLAC/Carl Ludwig Hubsch's Longrun Development Of The Universe - 2008 - The Universe Is a Disk [MP3 V0]/01 - The Common Determinator.mp3
/Users/anch/Music/FLAC/Carl Ludwig Hubsch's Longrun Development Of The Universe - 2008 - The Universe Is a Disk [FLAC]/01 - The Common Determinator.flac
Pre-gap length : 00:02:00
Track gain : -4.90 dB
Peak : 0.977661
CRC32 hash (test run) : A0B2D7F8
CRC32 hash : A0B2D7F8
CRC32 hash (skip zero) : DCD1E3D4
AccurateRip v1 signature : 0435C7EA
AccurateRip v2 signature : FEAC6811
->Track not present in AccurateRip database.
Statistics
Read error : 0
Jitter error (maybe fixed) : 0
Retry sector count : 0
Damaged sector count : 0
Track 02
Filename : /Users/anch/Music/FLAC/Carl Ludwig Hubsch's Longrun Development Of The Universe - 2008 - The Universe Is a Disk [MP3 320]/02 - Common Indetermination.mp3
/Users/anch/Music/FLAC/Carl Ludwig Hubsch's Longrun Development Of The Universe - 2008 - The Universe Is a Disk [MP3 V0]/02 - Common Indetermination.mp3
/Users/anch/Music/FLAC/Carl Ludwig Hubsch's Longrun Development Of The Universe - 2008 - The Universe Is a Disk [FLAC]/02 - Common Indetermination.flac
Pre-gap length : 00:01:14
Track gain : 19.88 dB
Peak : 0.977295
CRC32 hash (test run) : 9202F494
CRC32 hash : 9202F494
CRC32 hash (skip zero) : EFE3DD7E
AccurateRip v1 signature : 63AF356C
AccurateRip v2 signature : 1DE1B477
->Track not present in AccurateRip database.
Statistics
Read error : 0
Jitter error (maybe fixed) : 0
Retry sector count : 0
Damaged sector count : 0
Track 03
Filename : /Users/anch/Music/FLAC/Carl Ludwig Hubsch's Longrun Development Of The Universe - 2008 - The Universe Is a Disk [MP3 320]/03 - Another Determinator.mp3
/Users/anch/Music/FLAC/Carl Ludwig Hubsch's Longrun Development Of The Universe - 2008 - The Universe Is a Disk [MP3 V0]/03 - Another Determinator.mp3
/Users/anch/Music/FLAC/Carl Ludwig Hubsch's Longrun Development Of The Universe - 2008 - The Universe Is a Disk [FLAC]/03 - Another Determinator.flac
Pre-gap length : 00:00:10
Track gain : -7.63 dB
Peak : 0.977753
CRC32 hash (test run) : 15D2E29F
CRC32 hash : 15D2E29F
CRC32 hash (skip zero) : 24FD737F
AccurateRip v1 signature : B21AB3B3
AccurateRip v2 signature : 3C0A959B
->Track not present in AccurateRip database.
Statistics
Read error : 0
Jitter error (maybe fixed) : 0
Retry sector count : 0
Damaged sector count : 0
Track 04
Filename : /Users/anch/Music/FLAC/Carl Ludwig Hubsch's Longrun Development Of The Universe - 2008 - The Universe Is a Disk [MP3 320]/04 - Von Ohr Zu Ohr.mp3
/Users/anch/Music/FLAC/Carl Ludwig Hubsch's Longrun Development Of The Universe - 2008 - The Universe Is a Disk [MP3 V0]/04 - Von Ohr Zu Ohr.mp3
/Users/anch/Music/FLAC/Carl Ludwig Hubsch's Longrun Development Of The Universe - 2008 - The Universe Is a Disk [FLAC]/04 - Von Ohr Zu Ohr.flac
Pre-gap length : 00:03:26
Track gain : 0.13 dB
Peak : 0.826263
CRC32 hash (test run) : 557B7C05
CRC32 hash : 557B7C05
CRC32 hash (skip zero) : D11A93F2
AccurateRip v1 signature : AE658C02
AccurateRip v2 signature : A23DA71C
->Track not present in AccurateRip database.
Statistics
Read error : 0
Jitter error (maybe fixed) : 0
Retry sector count : 0
Damaged sector count : 0
Track 05
Filename : /Users/anch/Music/FLAC/Carl Ludwig Hubsch's Longrun Development Of The Universe - 2008 - The Universe Is a Disk [MP3 320]/05 - Floating Fragments Part 2.mp3
/Users/anch/Music/FLAC/Carl Ludwig Hubsch's Longrun Development Of The Universe - 2008 - The Universe Is a Disk [MP3 V0]/05 - Floating Fragments Part 2.mp3
/Users/anch/Music/FLAC/Carl Ludwig Hubsch's Longrun Development Of The Universe - 2008 - The Universe Is a Disk [FLAC]/05 - Floating Fragments Part 2.flac
Pre-gap length : 00:00:39
Track gain : -1.80 dB
Peak : 0.977692
CRC32 hash (test run) : 89B44A67
CRC32 hash : 89B44A67
CRC32 hash (skip zero) : 9A2645FA
AccurateRip v1 signature : 18AF6135
AccurateRip v2 signature : 2095694D
->Track not present in AccurateRip database.
Statistics
Read error : 0
Jitter error (maybe fixed) : 0
Retry sector count : 0
Damaged sector count : 0
Track 06
Filename : /Users/anch/Music/FLAC/Carl Ludwig Hubsch's Longrun Development Of The Universe - 2008 - The Universe Is a Disk [MP3 320]/06 - Floating Fragments Part 3.mp3
/Users/anch/Music/FLAC/Carl Ludwig Hubsch's Longrun Development Of The Universe - 2008 - The Universe Is a Disk [MP3 V0]/06 - Floating Fragments Part 3.mp3
/Users/anch/Music/FLAC/Carl Ludwig Hubsch's Longrun Development Of The Universe - 2008 - The Universe Is a Disk [FLAC]/06 - Floating Fragments Part 3.flac
Pre-gap length : 00:01:53
Track gain : 7.45 dB
Peak : 0.977325
CRC32 hash (test run) : E67615EA
CRC32 hash : E67615EA
CRC32 hash (skip zero) : 126476CE
AccurateRip v1 signature : 0152F0AC
AccurateRip v2 signature : C4F25F37
->Track not present in AccurateRip database.
Statistics
Read error : 0
Jitter error (maybe fixed) : 0
Retry sector count : 0
Damaged sector count : 0
Track 07
Filename : /Users/anch/Music/FLAC/Carl Ludwig Hubsch's Longrun Development Of The Universe - 2008 - The Universe Is a Disk [MP3 320]/07 - Articulations.mp3
/Users/anch/Music/FLAC/Carl Ludwig Hubsch's Longrun Development Of The Universe - 2008 - The Universe Is a Disk [MP3 V0]/07 - Articulations.mp3
/Users/anch/Music/FLAC/Carl Ludwig Hubsch's Longrun Development Of The Universe - 2008 - The Universe Is a Disk [FLAC]/07 - Articulations.flac
Pre-gap length : 00:05:38
Track gain : -1.99 dB
Peak : 0.977509
CRC32 hash (test run) : EB755AC4
CRC32 hash : EB755AC4
CRC32 hash (skip zero) : 63D6B5E9
AccurateRip v1 signature : 138B4704
AccurateRip v2 signature : BD4B4EFD
->Track not present in AccurateRip database.
Statistics
Read error : 0
Jitter error (maybe fixed) : 0
Retry sector count : 0
Damaged sector count : 0
Track 08
Filename : /Users/anch/Music/FLAC/Carl Ludwig Hubsch's Longrun Development Of The Universe - 2008 - The Universe Is a Disk [MP3 320]/08 - Floating Fragments Part 1.mp3
/Users/anch/Music/FLAC/Carl Ludwig Hubsch's Longrun Development Of The Universe - 2008 - The Universe Is a Disk [MP3 V0]/08 - Floating Fragments Part 1.mp3
/Users/anch/Music/FLAC/Carl Ludwig Hubsch's Longrun Development Of The Universe - 2008 - The Universe Is a Disk [FLAC]/08 - Floating Fragments Part 1.flac
Pre-gap length : 00:04:49
Track gain : 1.50 dB
Peak : 0.727112
CRC32 hash (test run) : 11BD020F
CRC32 hash : 11BD020F
CRC32 hash (skip zero) : 0CA30122
AccurateRip v1 signature : 17167AC9
AccurateRip v2 signature : BE57213A
->Track not present in AccurateRip database.
Statistics
Read error : 0
Jitter error (maybe fixed) : 0
Retry sector count : 0
Damaged sector count : 0
Track 09
Filename : /Users/anch/Music/FLAC/Carl Ludwig Hubsch's Longrun Development Of The Universe - 2008 - The Universe Is a Disk [MP3 320]/09 - Elefantenrunde.mp3
/Users/anch/Music/FLAC/Carl Ludwig Hubsch's Longrun Development Of The Universe - 2008 - The Universe Is a Disk [MP3 V0]/09 - Elefantenrunde.mp3
/Users/anch/Music/FLAC/Carl Ludwig Hubsch's Longrun Development Of The Universe - 2008 - The Universe Is a Disk [FLAC]/09 - Elefantenrunde.flac
Pre-gap length : 00:06:00
Track gain : 11.88 dB
Peak : 0.516266
CRC32 hash (test run) : 860FACFC
CRC32 hash : 860FACFC
CRC32 hash (skip zero) : 7629040F
AccurateRip v1 signature : E74D7948
AccurateRip v2 signature : 4E90947C
->Track not present in AccurateRip database.
Statistics
Read error : 0
Jitter error (maybe fixed) : 0
Retry sector count : 0
Damaged sector count : 0
No errors occurred
End of status report
 
Содержание индексной карты (.CUE)
TITLE "The Universe Is a Disk"
PERFORMER "Carl Ludwig Hübsch's Longrun Development Of The Universe"
REM GENRE "Free Jazz"
REM DATE "2008"
REM DISCNUMBER 1
REM TOTALDISCS 1
REM DISCID 840E7309
REM REPLAYGAIN_ALBUM_GAIN -3.01 dB
REM REPLAYGAIN_ALBUM_PEAK 0.977753
FILE "01 - The Common Determinator.flac" WAVE
TRACK 01 AUDIO
TITLE "The Common Determinator"
PERFORMER "Carl Ludwig Hübsch's Longrun Development Of The Universe"
ISRC GBJZD0500067
FLAGS DCP
REM REPLAYGAIN_TRACK_GAIN -4.90 dB
REM REPLAYGAIN_TRACK_PEAK 0.977661
INDEX 01 00:00:00
TRACK 02 AUDIO
TITLE "Common Indetermination"
PERFORMER "Carl Ludwig Hübsch's Longrun Development Of The Universe"
ISRC GBJZD0500068
FLAGS DCP
REM REPLAYGAIN_TRACK_GAIN 19.88 dB
REM REPLAYGAIN_TRACK_PEAK 0.977295
INDEX 00 07:05:47
FILE "02 - Common Indetermination.flac" WAVE
INDEX 01 00:00:00
TRACK 03 AUDIO
TITLE "Another Determinator"
PERFORMER "Carl Ludwig Hübsch's Longrun Development Of The Universe"
ISRC GBJZD0500069
FLAGS DCP
REM REPLAYGAIN_TRACK_GAIN -7.63 dB
REM REPLAYGAIN_TRACK_PEAK 0.977753
INDEX 00 05:14:14
FILE "03 - Another Determinator.flac" WAVE
INDEX 01 00:00:00
TRACK 04 AUDIO
TITLE "Von Ohr Zu Ohr"
PERFORMER "Carl Ludwig Hübsch's Longrun Development Of The Universe"
ISRC GBJZD0500070
FLAGS DCP
REM REPLAYGAIN_TRACK_GAIN 0.13 dB
REM REPLAYGAIN_TRACK_PEAK 0.826263
INDEX 00 08:40:34
FILE "04 - Von Ohr Zu Ohr.flac" WAVE
INDEX 01 00:00:00
TRACK 05 AUDIO
TITLE "Floating Fragments Part 2"
PERFORMER "Carl Ludwig Hübsch's Longrun Development Of The Universe"
ISRC GBJZD0500071
FLAGS DCP
REM REPLAYGAIN_TRACK_GAIN -1.80 dB
REM REPLAYGAIN_TRACK_PEAK 0.977692
INDEX 00 05:17:02
FILE "05 - Floating Fragments Part 2.flac" WAVE
INDEX 01 00:00:00
TRACK 06 AUDIO
TITLE "Floating Fragments Part 3"
PERFORMER "Carl Ludwig Hübsch's Longrun Development Of The Universe"
ISRC GBJZD0500072
FLAGS DCP
REM REPLAYGAIN_TRACK_GAIN 7.45 dB
REM REPLAYGAIN_TRACK_PEAK 0.977325
INDEX 00 09:31:08
FILE "06 - Floating Fragments Part 3.flac" WAVE
INDEX 01 00:00:00
TRACK 07 AUDIO
TITLE "Articulations"
PERFORMER "Carl Ludwig Hübsch's Longrun Development Of The Universe"
ISRC GBJZD0500073
FLAGS DCP
REM REPLAYGAIN_TRACK_GAIN -1.99 dB
REM REPLAYGAIN_TRACK_PEAK 0.977509
INDEX 00 11:19:39
FILE "07 - Articulations.flac" WAVE
INDEX 01 00:00:00
TRACK 08 AUDIO
TITLE "Floating Fragments Part 1"
PERFORMER "Carl Ludwig Hübsch's Longrun Development Of The Universe"
ISRC GBJZD0500074
FLAGS DCP
REM REPLAYGAIN_TRACK_GAIN 1.50 dB
REM REPLAYGAIN_TRACK_PEAK 0.727112
INDEX 00 06:42:47
FILE "08 - Floating Fragments Part 1.flac" WAVE
INDEX 01 00:00:00
TRACK 09 AUDIO
TITLE "Elefantenrunde"
PERFORMER "Carl Ludwig Hübsch's Longrun Development Of The Universe"
ISRC GBJZD0500075
FLAGS DCP
REM REPLAYGAIN_TRACK_GAIN 11.88 dB
REM REPLAYGAIN_TRACK_PEAK 0.516266
INDEX 00 03:40:70
FILE "09 - Elefantenrunde.flac" WAVE
INDEX 01 00:00:00
Доп. информация: Recorded at Matthias Schubert Art Laboratory, Cologne, November 2007
 
Состав
Saxophone – Matthias Schubert
Trombone – Wolter Wierbos
Tuba, Recorded By – Carl Ludwig Hübsch
По всем вопросам пишите личное сообщение пользователю M0p94ok.
06:09
169
Нет комментариев. Ваш будет первым!