Вы используете незарегистрированную версию компонента "Вкладки"!

Поиск

(Free Improvisation, Bop) [CD] Masayuki Takayanagi & Nobuyoshi Ino - Reason for Being - 1992 (Japan Edition), FLAC (tracks+.cue), lossless

(Free Improvisation, Bop) [CD] Masayuki Takayanagi & Nobuyoshi Ino - Reason for Being - 1992 (Japan Edition), FLAC (tracks+.cue), lossless
Треклист:
Masayuki Takayanagi & Nobuyoshi Ino - Reason for Being
Жанр: Free Improvisation, Bop
Носитель: CD
Страна-производитель диска: Япония
Год издания: 1992
Издатель (лейбл): Jinya Disc
Номер по каталогу: B-02 / LMCD-1287
Аудиокодек: FLAC (*.flac)
Тип рипа: tracks+.cue
Битрейт аудио: lossless
Продолжительность: 49:01
Источник (релизер): dashdash1 (what)
Наличие сканов в содержимом раздачи: да
Треклист:
01. Hackensack (Monk) - 8:59
02. You Don't Know What Love Is (Raye-DePaul) - 9:12
03. 900320 (Takayanagi) - 10:46
04. Reason for Being (Takayanagi) - 9:35
05. 901027 (Takayanagi) - 10:29
Состав:
Masayuki Takayanagi - guitar
Nobuyoshi Ino - bass
Recorded live at Lovely, Nagoya on March 20, 1990 (#1-3) and at Romanisches Cafe, Tokyo on October 27, 1990 (#4,5).
 
Лог создания рипа
Exact Audio Copy V1.0 beta 3 from 29. August 2011
EAC extraction logfile from 1. March 2012, 16:53
Masayuki Takayanagi & Nobuyoshi Ino / Reason For Being
Used drive : Optiarc DVD RW AD-7585H Adapter: 0 ID: 1
Read mode : Secure
Utilize accurate stream : Yes
Defeat audio cache : Yes
Make use of C2 pointers : No
Read offset correction : 6
Overread into Lead-In and Lead-Out : No
Fill up missing offset samples with silence : Yes
Delete leading and trailing silent blocks : No
Null samples used in CRC calculations : Yes
Used interface : Native Win32 interface for Win NT & 2000
Gap handling : Appended to previous track
Used output format : User Defined Encoder
Selected bitrate : 128 kBit/s
Quality : High
Add ID3 tag : No
Command line compressor : C:\Program Files (x86)\Exact Audio Copy\Flac\flac.exe
Additional command line options : -8 -V -T "ARTIST=%artist%" -T "TITLE=%title%" -T "ALBUM=%albumtitle%" -T "DATE=%year%" -T "TRACKNUMBER=%tracknr%" -T "GENRE=%genre%" -T "PERFORMER=%albuminterpret%" -T "COMPOSER=%composer%" %haslyrics%--tag-from-file=LYRICS="%lyricsfile%"%haslyrics% -T "ALBUMARTIST=%albumartist%" -T "DISCNUMBER=%cdnumber%" -T "TOTALDISCS=%totalcds%" -T "TOTALTRACKS=%numtracks%" -T "COMMENT=EAC V1.0 beta 3, Secure Mode, Test & Copy, AccurateRip, FLAC -8" %source% -o %dest%
TOC of the extracted CD
Track | Start | Length | Start sector | End sector
---------------------------------------------------------
1 | 0:00.00 | 8:59.12 | 0 | 40436
2 | 8:59.12 | 9:12.00 | 40437 | 81836
3 | 18:11.12 | 10:46.08 | 81837 | 130294
4 | 28:57.20 | 9:34.52 | 130295 | 173396
5 | 38:31.72 | 10:29.20 | 173397 | 220591
Track 1
Filename C:\EAC Rips\01 - Hackensack.wav
Pre-gap length 0:00:02.00
Peak level 94.0 %
Extraction speed 2.7 X
Track quality 99.9 %
Test CRC 27EC7432
Copy CRC 27EC7432
Accurately ripped (confidence 2) [A29C876B] (AR v1)
Copy OK
Track 2
Filename C:\EAC Rips\02 - You Don't Know What Love Is.wav
Pre-gap length 0:00:08.80
Peak level 73.7 %
Extraction speed 3.6 X
Track quality 100.0 %
Test CRC B19BBE41
Copy CRC B19BBE41
Accurately ripped (confidence 2) [0394CF52] (AR v1)
Copy OK
Track 3
Filename C:\EAC Rips\03 - 900320.wav
Pre-gap length 0:00:02.49
Peak level 91.7 %
Extraction speed 4.2 X
Track quality 100.0 %
Test CRC 120930E6
Copy CRC 120930E6
Accurately ripped (confidence 2) [F385203A] (AR v1)
Copy OK
Track 4
Filename C:\EAC Rips\04 - Reason For Being.wav
Pre-gap length 0:00:04.10
Peak level 90.4 %
Extraction speed 4.3 X
Track quality 99.9 %
Test CRC 955B49F4
Copy CRC 955B49F4
Accurately ripped (confidence 1) [1332490F] (AR v1)
Copy OK
Track 5
Filename C:\EAC Rips\05 - 901027.wav
Pre-gap length 0:00:03.46
Peak level 66.7 %
Extraction speed 5.2 X
Track quality 100.0 %
Test CRC 5104B04F
Copy CRC 5104B04F
Accurately ripped (confidence 1) [3964CE8A] (AR v1)
Copy OK
All tracks accurately ripped
No errors occurred
End of status report
---- CUETools DB Plugin V2.1.3
[CTDB TOCID: hGq44V1zWTF3S_XmNAgQf2Z4Mpo-] disk not present in database, Submit result: hGq44V1zWTF3S_XmNAgQf2Z4Mpo- has been uploaded
==== Log checksum 85861B112D0CFCF5260047F9219AFA024FD1F09F8ED4A3BCB296910AA70E131A ====
 
Содержание индексной карты (.CUE)
REM GENRE Jazz
REM DATE 1992
REM DISCID 360B7D05
REM COMMENT "ExactAudioCopy v1.0b3"
PERFORMER "Masayuki Takayanagi"
TITLE "Reason for Being"
FILE "01 - Hackensack.wav" WAVE
TRACK 01 AUDIO
TITLE "Hackensack"
PERFORMER "Masayuki Takayanagi"
INDEX 01 00:00:00
TRACK 02 AUDIO
TITLE "You Don't Know What Love Is"
PERFORMER "Masayuki Takayanagi"
INDEX 00 08:50:27
FILE "02 - You Don't Know What Love Is.wav" WAVE
INDEX 01 00:00:00
TRACK 03 AUDIO
TITLE "900320"
PERFORMER "Masayuki Takayanagi"
INDEX 00 09:09:38
FILE "03 - 900320.wav" WAVE
INDEX 01 00:00:00
TRACK 04 AUDIO
TITLE "Reason for Being"
PERFORMER "Masayuki Takayanagi"
INDEX 00 10:42:00
FILE "04 - Reason for Being.wav" WAVE
INDEX 01 00:00:00
TRACK 05 AUDIO
TITLE "901027"
PERFORMER "Masayuki Takayanagi"
INDEX 00 09:31:17
FILE "05 - 901027.wav" WAVE
INDEX 01 00:00:00
 
Отчет CUETools
[CUETools log; Date: 17.11.2014 1:22:33; Version: 2.1.5]
[CTDB TOCID: hGq44V1zWTF3S_XmNAgQf2Z4Mpo-] found.
Track | CTDB Status
1 | (1/1) Accurately ripped
2 | (1/1) Accurately ripped
3 | (1/1) Accurately ripped
4 | (1/1) Accurately ripped
5 | (1/1) Accurately ripped
[AccurateRip ID: 0009dd9e-002e5b97-360b7d05] found.
Track [ CRC | V2 ] Status
01 [a29c876b|77764cf3] (2+0/2) Accurately ripped
02 [0394cf52|b85f1080] (2+0/2) Accurately ripped
03 [f385203a|89b79fa5] (2+0/2) Accurately ripped
04 [1332490f|9dcedd1f] (1+0/1) Accurately ripped
05 [3964ce8a|2dcdc70f] (1+0/1) Accurately ripped
Track Peak [ CRC32 ] [W/O NULL] [ LOG ]
-- 94,0 [1AD2F5BA] [F9DED813]
01 94,0 [27EC7432] [318CCA96] CRC32
02 73,7 [B19BBE41] [DF555DC0] CRC32
03 91,7 [120930E6] [7FC6BFFF] CRC32
04 90,4 [955B49F4] [A06ACE67] CRC32
05 66,7 [5104B04F] [59242B2F] CRC32
 
Об альбоме (сборнике)
Featuring Masayuki Takayanagi on hollow-body jazz guitar (not on table) and Nobuyoshi Ino on acoustic bass. This disc was recorded in Nagoya in March of 1990 and Tokyo in October of 1990. The duo perform two standards and three originals. After hearing Masayuki play his free noise guitar, I was surprised to hear him play a standard, but here he is playing a jazz guitar version of Monk's З Hackensack И. This cat can certainly play jazz and he has a fine slinky jazz guitar tone as he plays that large hollow-body guitar. This reminds me of Dom Minasi and Ken Filiano, although I doubt that any of these folks have heard (of) one another. The duo does take the tune out, yet keep the melody in there somewhere and even swing in their own way. Even more surprising is their version of З You Don't Know What Love Is И, a somewhat corny tune done delicately and tastefully, strange ? The three originals by Takayanagi are certainly further out but the duo are coming from a jazz tradition, tone-wise. З 900320 И is free, melodic and somewhat restrained at the same time. The further they go out, they more exciting things get. What is amazing is how well they play together and the way they play together and spin furious webs of notes around each other. Extraordinary playing!
-- BLG
По всем вопросам пишите личное сообщение пользователю M0p94ok.
06:07
308
Нет комментариев. Ваш будет первым!