Вы используете незарегистрированную версию компонента "Вкладки"!

Поиск

(Free Improvisation, Cool) [CD] Masayuki "Jojo" Takayanagi - Lonely Woman - 1982 (2002 Japan Edition), FLAC (tracks+.cue), lossless

(Free Improvisation, Cool) [CD] Masayuki "Jojo" Takayanagi - Lonely Woman - 1982 (2002 Japan Edition), FLAC (tracks+.cue), lossless
Треклист:
Masayuki "Jojo" Takayanagi - Lonely Woman
Жанр: Free Improvisation, Cool
Носитель: CD
Страна-производитель диска: Япония
Год издания: 2002
Издатель (лейбл): Three Blind Mice
Номер по каталогу: TBM-CD-1893
Аудиокодек: FLAC (*.flac)
Тип рипа: tracks+.cue
Битрейт аудио: lossless
Продолжительность: 40:01
Источник (релизер): soundshock (what)
Наличие сканов в содержимом раздачи: нет
Треклист:
01. Lonely Woman (Coleman) - 11:51
02. Kary's Trance (Konitz) - 5:19
03. Sketches (Takayanagi) - 3:21
04. Song for Che (Haden) - 8:29
05. Lennie's Pennies (Tristano) - 6:30
06. Black Is the Color of My True Love's Hair (Trad.) - 4:31
Состав:
Masayuki Takayanagi - electric guitar
Recorded at Sound Sky, Tokyo on August 21-22, 1982.
 
Лог создания рипа
X Lossless Decoder version 20130602 (143.2)
XLD extraction logfile from 2014-04-29 08:55:08 +0200
Masayuki Takayanagi / Lonely Woman
Used drive : HL-DT-ST DVDRW GA32N (revision KE06)
Media type : Pressed CD
Ripper mode : XLD Secure Ripper
Disable audio cache : OK for the drive with a cache less than 1375KiB
Make use of C2 pointers : NO
Read offset correction : 103
Max retry count : 20
Gap status : Analyzed, Appended (except HTOA)
TOC of the extracted CD
Track | Start | Length | Start sector | End sector
---------------------------------------------------------
1 | 00:00:00 | 11:50:58 | 0 | 53307
2 | 11:50:58 | 05:18:42 | 53308 | 77199
3 | 17:09:25 | 03:20:55 | 77200 | 92254
4 | 20:30:05 | 08:28:53 | 92255 | 130407
5 | 28:58:58 | 06:30:02 | 130408 | 159659
6 | 35:28:60 | 04:31:00 | 159660 | 179984
AccurateRip Summary
Disc not found in AccurateRip DB.
All Tracks
Album gain : -7.51 dB
Peak : 0.979767
Statistics
Read error : 0
Jitter error (maybe fixed) : 0
Retry sector count : 0
Damaged sector count : 0
Track 01
Filename : /Volumes/My Passport/Masayuki Takayanagi - Lonely Woman (1982) [FLAC]/01 Lonely Woman (Ornette Coleman).flac
Pre-gap length : 00:02:00
Track gain : -9.37 dB
Peak : 0.979767
CRC32 hash (test run) : 256FE983
CRC32 hash : 256FE983
CRC32 hash (skip zero) : B433BB4A
AccurateRip v1 signature : 16751779
AccurateRip v2 signature : F34FC821
->Track not present in AccurateRip database.
Statistics
Read error : 0
Jitter error (maybe fixed) : 0
Retry sector count : 0
Damaged sector count : 0
Track 02
Filename : /Volumes/My Passport/Masayuki Takayanagi - Lonely Woman (1982) [FLAC]/02 Kary's Trance (Lee Konitz).flac
Track gain : -4.95 dB
Peak : 0.979706
CRC32 hash (test run) : 0BAB35BC
CRC32 hash : 0BAB35BC
CRC32 hash (skip zero) : 37F84239
AccurateRip v1 signature : 8A93696D
AccurateRip v2 signature : D4F5B0CE
->Track not present in AccurateRip database.
Statistics
Read error : 0
Jitter error (maybe fixed) : 0
Retry sector count : 0
Damaged sector count : 0
Track 03
Filename : /Volumes/My Passport/Masayuki Takayanagi - Lonely Woman (1982) [FLAC]/03 Sketches Masayuki Takayanagi).flac
Track gain : 1.11 dB
Peak : 0.670471
CRC32 hash (test run) : 949AA8C3
CRC32 hash : 949AA8C3
CRC32 hash (skip zero) : 60BCFAC0
AccurateRip v1 signature : 6A1E27A7
AccurateRip v2 signature : BA7F108E
->Track not present in AccurateRip database.
Statistics
Read error : 0
Jitter error (maybe fixed) : 0
Retry sector count : 0
Damaged sector count : 0
Track 04
Filename : /Volumes/My Passport/Masayuki Takayanagi - Lonely Woman (1982) [FLAC]/04 Song for Che (Charlie Haden).flac
Pre-gap length : 00:01:14
Track gain : -7.27 dB
Peak : 0.979767
CRC32 hash (test run) : A2096DD1
CRC32 hash : A2096DD1
CRC32 hash (skip zero) : F7F10954
AccurateRip v1 signature : A79ABA7F
AccurateRip v2 signature : DB49BC68
->Track not present in AccurateRip database.
Statistics
Read error : 0
Jitter error (maybe fixed) : 0
Retry sector count : 0
Damaged sector count : 0
Track 05
Filename : /Volumes/My Passport/Masayuki Takayanagi - Lonely Woman (1982) [FLAC]/05 Lennie's Pennies (Lennie Tristano).flac
Pre-gap length : 00:01:54
Track gain : -3.45 dB
Peak : 0.979706
CRC32 hash (test run) : 16D2A5DA
CRC32 hash : 16D2A5DA
CRC32 hash (skip zero) : 083CAA88
AccurateRip v1 signature : A8E9D0F5
AccurateRip v2 signature : 4C9337B3
->Track not present in AccurateRip database.
Statistics
Read error : 0
Jitter error (maybe fixed) : 0
Retry sector count : 0
Damaged sector count : 0
Track 06
Filename : /Volumes/My Passport/Masayuki Takayanagi - Lonely Woman (1982) [FLAC]/06 Black is the Color of My True Love's Hair (J.J.Niles).flac
Pre-gap length : 00:01:36
Track gain : -3.98 dB
Peak : 0.976532
CRC32 hash (test run) : 9643BBF9
CRC32 hash : 9643BBF9
CRC32 hash (skip zero) : 9840BD27
AccurateRip v1 signature : 2DB0988E
AccurateRip v2 signature : D12DC011
->Track not present in AccurateRip database.
Statistics
Read error : 0
Jitter error (maybe fixed) : 0
Retry sector count : 0
Damaged sector count : 0
No errors occurred
End of status report
-----BEGIN XLD SIGNATURE-----
u7yydnc3DnEQK92HTIWvk3OM7sSlOyxABFZnPZ_Gib8n4OT81mP_41lnNkrRIGf5tW4PWDbDN0qyLZ.icNDAEY.A9wB2OdsL7BwW4kq
-----END XLD SIGNATURE-----
 
Содержание индексной карты (.CUE)
TITLE "Lonely Woman"
PERFORMER "Masayuki Takayanagi"
REM GENRE "Jazz"
REM DATE "1982"
REM DISCID 2B095F06
REM REPLAYGAIN_ALBUM_GAIN -7.51 dB
REM REPLAYGAIN_ALBUM_PEAK 0.979767
FILE "01 - Lonely Woman.flac" WAVE
TRACK 01 AUDIO
TITLE "Lonely Woman"
REM REPLAYGAIN_TRACK_GAIN -9.37 dB
REM REPLAYGAIN_TRACK_PEAK 0.979767
INDEX 01 00:00:00
FILE "02 - Kary's Trance.flac" WAVE
TRACK 02 AUDIO
TITLE "Kary's Trance"
REM REPLAYGAIN_TRACK_GAIN -4.95 dB
REM REPLAYGAIN_TRACK_PEAK 0.979706
INDEX 01 00:00:00
FILE "03 - Sketches.flac" WAVE
TRACK 03 AUDIO
TITLE "Sketches"
REM REPLAYGAIN_TRACK_GAIN 1.11 dB
REM REPLAYGAIN_TRACK_PEAK 0.670471
INDEX 01 00:00:00
TRACK 04 AUDIO
TITLE "Song for Che"
REM REPLAYGAIN_TRACK_GAIN -7.27 dB
REM REPLAYGAIN_TRACK_PEAK 0.979767
INDEX 00 03:19:41
FILE "04 - Song for Che.flac" WAVE
INDEX 01 00:00:00
TRACK 05 AUDIO
TITLE "Lennie's Pennies"
REM REPLAYGAIN_TRACK_GAIN -3.45 dB
REM REPLAYGAIN_TRACK_PEAK 0.979706
INDEX 00 08:26:74
FILE "05 - Lennie's Pennies.flac" WAVE
INDEX 01 00:00:00
TRACK 06 AUDIO
TITLE "Black Is the Color of My True Love's Hair"
REM REPLAYGAIN_TRACK_GAIN -3.98 dB
REM REPLAYGAIN_TRACK_PEAK 0.976532
INDEX 00 06:28:41
FILE "06 - Black Is the Color of My True Love's Hair.flac" WAVE
INDEX 01 00:00:00
 
Об альбоме (сборнике)
Masayuki Takayanagi covering jazz standards from Lee Konitz, Charlie Haden, Lennie Tristano and as the title indicates, Ornette Coleman's "Lonely Woman". The album shows a skilful and bailey-esque glance to these famous compositions, but do lack something if you are not prepared to hear some long solos! Guitar lovers should enjoy this beautiful performance.
По всем вопросам пишите личное сообщение пользователю M0p94ok.
06:07
190
Нет комментариев. Ваш будет первым!