Вы используете незарегистрированную версию компонента "Вкладки"!

Поиск

(Free Improvisation, Cool) [CD] Masayuki Takayanagi - Second Concept (3CD) - 1979 (2009 Japan Edition), FLAC (tracks+.cue), lossless

(Free Improvisation, Cool) [CD] Masayuki Takayanagi - Second Concept (3CD) - 1979 (2009 Japan Edition), FLAC (tracks+.cue), lossless
Треклист:
Masayuki Takayanagi - Second Concept
Жанр: Free Improvisation, Cool
Носитель: CD
Страна-производитель диска: Япония
Год издания: 2009
Издатель (лейбл): Jinya Disc
Номер по каталогу: B-1920 / JDR-004
Аудиокодек: FLAC (*.flac)
Тип рипа: tracks+.cue
Битрейт аудио: lossless
Продолжительность: 1:53:30
Источник (релизер): dashdash1 (what)
Наличие сканов в содержимом раздачи: нет
 
CD1 {52:02}
01. Hi Beck (Konitz) - 13:27
02. 317 East 32nd (Tristano) - 12:32
03. My New Flame (Takayanagi) - 7:11
04. Froggy Day (Ball) - 10:54
05. Palo Alto (Konitz) - 7:58
 
Лог создания рипа
Exact Audio Copy V1.0 beta 2 from 29. April 2011
EAC extraction logfile from 8. October 2011, 16:56
Masayuki Takayanagi / Second Concept
Used drive : TSSTcorpCDDVDW TS-L633C Adapter: 0 ID: 1
Read mode : Secure
Utilize accurate stream : Yes
Defeat audio cache : Yes
Make use of C2 pointers : No
Read offset correction : 6
Overread into Lead-In and Lead-Out : No
Fill up missing offset samples with silence : Yes
Delete leading and trailing silent blocks : No
Null samples used in CRC calculations : Yes
Used interface : Native Win32 interface for Win NT & 2000
Gap handling : Appended to previous track
Used output format : User Defined Encoder
Selected bitrate : 128 kBit/s
Quality : High
Add ID3 tag : No
Command line compressor : C:\Program Files (x86)\Exact Audio Copy\Flac\flac.exe
Additional command line options : -8 -V -T "ARTIST=%artist%" -T "TITLE=%title%" -T "ALBUM=%albumtitle%" -T "DATE=%year%" -T "TRACKNUMBER=%tracknr%" -T "GENRE=%genre%" -T "PERFORMER=%albuminterpret%" -T "COMPOSER=%composer%" %haslyrics%--tag-from-file=LYRICS
TOC of the extracted CD
Track | Start | Length | Start sector | End sector
---------------------------------------------------------
1 | 0:00.00 | 13:26.46 | 0 | 60495
2 | 13:26.46 | 12:32.04 | 60496 | 116899
3 | 25:58.50 | 7:10.63 | 116900 | 149212
4 | 33:09.38 | 10:54.08 | 149213 | 198270
5 | 44:03.46 | 7:58.12 | 198271 | 234132
Track 1
Filename C:\EAC rips\01 - Hi beck.wav
Pre-gap length 0:00:02.00
Peak level 90.8 %
Extraction speed 1.5 X
Track quality 100.0 %
Test CRC 4C281C5A
Copy CRC 4C281C5A
Track not present in AccurateRip database
Copy OK
Track 2
Filename C:\EAC rips\02 - 317 East 32nd.wav
Pre-gap length 0:00:04.66
Peak level 85.7 %
Extraction speed 1.8 X
Track quality 100.0 %
Test CRC 7954C34A
Copy CRC 7954C34A
Track not present in AccurateRip database
Copy OK
Track 3
Filename C:\EAC rips\03 - My new flame.wav
Pre-gap length 0:00:05.50
Peak level 94.4 %
Extraction speed 2.0 X
Track quality 100.0 %
Test CRC 93CA587C
Copy CRC 93CA587C
Track not present in AccurateRip database
Copy OK
Track 4
Filename C:\EAC rips\04 - Froggy day.wav
Pre-gap length 0:00:04.70
Peak level 91.5 %
Extraction speed 2.2 X
Track quality 100.0 %
Test CRC 41633223
Copy CRC 41633223
Track not present in AccurateRip database
Copy OK
Track 5
Filename C:\EAC rips\05 - Palo Alto.wav
Pre-gap length 0:00:05.17
Peak level 92.2 %
Extraction speed 2.4 X
Track quality 100.0 %
Test CRC 86839559
Copy CRC 86839559
Track not present in AccurateRip database
Copy OK
None of the tracks are present in the AccurateRip database
No errors occurred
End of status report
==== Log checksum F214E04D5526C974E103078EC6DB6AB1978457D98BDA1453EDCD0FAB80649D08 ====
 
Содержание индексной карты (.CUE)
REM GENRE Jazz
REM DATE 1979
REM DISCID 430C3105
REM COMMENT "ExactAudioCopy v1.0b2"
PERFORMER "Masayuki Takayanagi"
TITLE "Second Concept CD1"
FILE "01 - Hi Beck.wav" WAVE
TRACK 01 AUDIO
TITLE "Hi Beck"
PERFORMER "Masayuki Takayanagi"
INDEX 01 00:00:00
TRACK 02 AUDIO
TITLE "317 East 32nd"
PERFORMER "Masayuki Takayanagi"
INDEX 00 13:21:55
FILE "02 - 317 East 32nd.wav" WAVE
INDEX 01 00:00:00
TRACK 03 AUDIO
TITLE "My New Flame"
PERFORMER "Masayuki Takayanagi"
INDEX 00 12:26:29
FILE "03 - My New Flame.wav" WAVE
INDEX 01 00:00:00
TRACK 04 AUDIO
TITLE "Froggy Day"
PERFORMER "Masayuki Takayanagi"
INDEX 00 07:05:68
FILE "04 - Froggy Day.wav" WAVE
INDEX 01 00:00:00
TRACK 05 AUDIO
TITLE "Palo Alto"
PERFORMER "Masayuki Takayanagi"
INDEX 00 10:48:66
FILE "05 - Palo Alto.wav" WAVE
INDEX 01 00:00:00
 
CD2 {52:50}
01. Sound Lee (Konitz) - 9:53
02. You'd Be So Nice to Come Home To (Porter) - 13:36
03. Autumn Nocturne (Myrow-Gannon) - 6:21
04. Kery's Trance (Konitz) - 11:39
05. Subconscious Lee (Konitz) - 6:03
06. These Things (Takayanagi) - 5:18
 
Лог создания рипа
Exact Audio Copy V1.0 beta 2 from 29. April 2011
EAC extraction logfile from 8. October 2011, 18:00
Masayuki Takayanagi / Second Concept
Used drive : TSSTcorpCDDVDW TS-L633C Adapter: 0 ID: 1
Read mode : Secure
Utilize accurate stream : Yes
Defeat audio cache : Yes
Make use of C2 pointers : No
Read offset correction : 6
Overread into Lead-In and Lead-Out : No
Fill up missing offset samples with silence : Yes
Delete leading and trailing silent blocks : No
Null samples used in CRC calculations : Yes
Used interface : Native Win32 interface for Win NT & 2000
Gap handling : Appended to previous track
Used output format : User Defined Encoder
Selected bitrate : 128 kBit/s
Quality : High
Add ID3 tag : No
Command line compressor : C:\Program Files (x86)\Exact Audio Copy\Flac\flac.exe
Additional command line options : -8 -V -T "ARTIST=%artist%" -T "TITLE=%title%" -T "ALBUM=%albumtitle%" -T "DATE=%year%" -T "TRACKNUMBER=%tracknr%" -T "GENRE=%genre%" -T "PERFORMER=%albuminterpret%" -T "COMPOSER=%composer%" %haslyrics%--tag-from-file=LYRICS
TOC of the extracted CD
Track | Start | Length | Start sector | End sector
---------------------------------------------------------
1 | 0:00.00 | 9:52.54 | 0 | 44453
2 | 9:52.54 | 13:36.07 | 44454 | 105660
3 | 23:28.61 | 6:21.20 | 105661 | 134255
4 | 29:50.06 | 11:38.44 | 134256 | 186649
5 | 41:28.50 | 6:03.07 | 186650 | 213881
6 | 47:31.57 | 5:17.52 | 213882 | 237708
Track 1
Filename C:\EAC rips\01 - Sound Lee.wav
Pre-gap length 0:00:02.00
Peak level 93.7 %
Extraction speed 1.4 X
Track quality 100.0 %
Test CRC A2F1683D
Copy CRC A2F1683D
Track not present in AccurateRip database
Copy OK
Track 2
Filename C:\EAC rips\02 - You'd be so nice to come home to.wav
Pre-gap length 0:00:05.47
Peak level 97.4 %
Extraction speed 1.8 X
Track quality 100.0 %
Test CRC ECB9E852
Copy CRC ECB9E852
Track not present in AccurateRip database
Copy OK
Track 3
Filename C:\EAC rips\03 - Autumn nocturn.wav
Pre-gap length 0:00:04.69
Peak level 76.0 %
Extraction speed 1.9 X
Track quality 100.0 %
Test CRC 2D2C2A31
Copy CRC 2D2C2A31
Track not present in AccurateRip database
Copy OK
Track 4
Filename C:\EAC rips\04 - Kery's trance.wav
Pre-gap length 0:00:05.29
Peak level 99.7 %
Extraction speed 2.2 X
Track quality 100.0 %
Test CRC DF9834CF
Copy CRC DF9834CF
Track not present in AccurateRip database
Copy OK
Track 5
Filename C:\EAC rips\05 - Subconscious Lee.wav
Pre-gap length 0:00:03.63
Peak level 100.0 %
Extraction speed 2.3 X
Track quality 100.0 %
Test CRC 33448473
Copy CRC 33448473
Track not present in AccurateRip database
Copy OK
Track 6
Filename C:\EAC rips\06 - These things.wav
Pre-gap length 0:00:05.72
Peak level 99.6 %
Extraction speed 2.3 X
Track quality 100.0 %
Test CRC AA62432A
Copy CRC AA62432A
Track not present in AccurateRip database
Copy OK
None of the tracks are present in the AccurateRip database
No errors occurred
End of status report
==== Log checksum 4C046E12F4DA7F2D5AF1FCD432784C861445BF133705079AF0C699BE0AD8A015 ====
 
Содержание индексной карты (.CUE)
REM GENRE Jazz
REM DATE 1979
REM DISCID 4E0C6106
REM COMMENT "ExactAudioCopy v1.0b2"
PERFORMER "Masayuki Takayanagi"
TITLE "Second Concept CD2"
FILE "01 - Sound Lee.wav" WAVE
TRACK 01 AUDIO
TITLE "Sound Lee"
PERFORMER "Masayuki Takayanagi"
INDEX 01 00:00:00
TRACK 02 AUDIO
TITLE "You'd Be So Nice to Come Home To"
PERFORMER "Masayuki Takayanagi"
INDEX 00 09:47:07
FILE "02 - You'd Be So Nice to Come Home To.wav" WAVE
INDEX 01 00:00:00
TRACK 03 AUDIO
TITLE "Autumn Nocturne"
PERFORMER "Masayuki Takayanagi"
INDEX 00 13:31:13
FILE "03 - Autumn Nocturne.wav" WAVE
INDEX 01 00:00:00
TRACK 04 AUDIO
TITLE "Kery's Trance"
PERFORMER "Masayuki Takayanagi"
INDEX 00 06:15:66
FILE "04 - Kery's Trance.wav" WAVE
INDEX 01 00:00:00
TRACK 05 AUDIO
TITLE "Subconscious Lee"
PERFORMER "Masayuki Takayanagi"
INDEX 00 11:34:56
FILE "05 - Subconscious Lee.wav" WAVE
INDEX 01 00:00:00
TRACK 06 AUDIO
TITLE "These Things"
PERFORMER "Masayuki Takayanagi"
INDEX 00 05:57:10
FILE "06 - These Things.wav" WAVE
INDEX 01 00:00:00
 
Bonus CD - 1979.5.27 Froggy Day {8:38}
01. Froggy Day (Ball) - 8:38
Initial copies came with a limited edition bonus disk by a trio version of the group containing a mono version of "Froggy Day" recorded on May 27, 1979.
 
Лог создания рипа
Exact Audio Copy V1.0 beta 2 from 29. April 2011
EAC extraction logfile from 8. October 2011, 18:30
Masayuki Takayanagi / 1979.5.27 Froggy Day
Used drive : TSSTcorpCDDVDW TS-L633C Adapter: 0 ID: 1
Read mode : Secure
Utilize accurate stream : Yes
Defeat audio cache : Yes
Make use of C2 pointers : No
Read offset correction : 6
Overread into Lead-In and Lead-Out : No
Fill up missing offset samples with silence : Yes
Delete leading and trailing silent blocks : No
Null samples used in CRC calculations : Yes
Used interface : Native Win32 interface for Win NT & 2000
Gap handling : Appended to previous track
Used output format : User Defined Encoder
Selected bitrate : 128 kBit/s
Quality : High
Add ID3 tag : No
Command line compressor : C:\Program Files (x86)\Exact Audio Copy\Flac\flac.exe
Additional command line options : -8 -V -T "ARTIST=%artist%" -T "TITLE=%title%" -T "ALBUM=%albumtitle%" -T "DATE=%year%" -T "TRACKNUMBER=%tracknr%" -T "GENRE=%genre%" -T "PERFORMER=%albuminterpret%" -T "COMPOSER=%composer%" %haslyrics%--tag-from-file=LYRICS
TOC of the extracted CD
Track | Start | Length | Start sector | End sector
---------------------------------------------------------
1 | 0:00.00 | 8:38.35 | 0 | 38884
Track 1
Filename C:\EAC rips\01 - Froggy Day.wav
Pre-gap length 0:00:02.00
Peak level 69.3 %
Extraction speed 1.4 X
Track quality 100.0 %
Test CRC 39BF5F34
Copy CRC 39BF5F34
Track not present in AccurateRip database
Copy OK
None of the tracks are present in the AccurateRip database
No errors occurred
End of status report
==== Log checksum FB9E9BC8357BE8588B1A5EEF93CE6BB802D23455183AF66C9457CE60B0DA5064 ====
 
Содержание индексной карты (.CUE)
REM GENRE Jazz
REM DATE 1979
REM DISCID 02020601
REM COMMENT "ExactAudioCopy v1.0b2"
PERFORMER "Masayuki Takayanagi"
TITLE "1979.5.27 Froggy Day"
FILE "01 - Froggy Day.wav" WAVE
TRACK 01 AUDIO
TITLE "Froggy Day"
PERFORMER "Masayuki Takayanagi"
INDEX 01 00:00:00
 
Об альбоме (сборнике)
october 2009 release ; double-disc set covering a complete concert by masayuki takayanagi’s “second concept” (tak, plus kenji kousei, yasuhito mori, yasuhiro yamazaki) recorded at “taro” on november 25th, 1979 ...
the group are on fire throughout, with kousei’s electric piano lending a decidely “late 70s” touch to the largely swinging, loose feel throughout ... tak lays out quite a bit, often playing unison lines with & comping behind kousei’s exploratory lines, but he does step out for a few amazing, internal-logic fueled choruses (such as the one featured in the sound-sample) ...
nice-looking single-wide double-disc set, with liners in japanese & english ; each copy comes with a bonus disc covering an “alternate” take of “froggy day” recorded by a trio version of second concept (mori must have stepped out for a smoke) recorded on tape off of the radio ...
-- Mimaroglu Music Sales
 
Состав
Masayuki Takayanagi - guitar
Kenji Kosei - electric piano
Yasuhito Mori - bass
Yasuhiro Yamazaki - drums
Recorded at the Jazz Club Taro, Tokyo on November 25, 1979.
По всем вопросам пишите личное сообщение пользователю M0p94ok.
06:06
167
Нет комментариев. Ваш будет первым!