Вы используете незарегистрированную версию компонента "Вкладки"!

Поиск

(Neo-Bop / Avant-Garde / Knitting Factory Works) Ben Goldberg / John Schott / Trevor Dunn / Kenny Wollesen - Junk Genius - 1995, FLAC (image+.cue), lossless

(Neo-Bop / Avant-Garde / Knitting Factory Works) Ben Goldberg / John Schott / Trevor Dunn / Kenny Wollesen - Junk Genius - 1995, FLAC (image+.cue), lossless
Треклист:
Ben Goldberg / John Schott / Trevor Dunn / Kenny Wollesen - Junk Genius
Жанр: Neo-Bop / Avant-Garde / Knitting Factory Works
Год выпуска диска: 1995
Производитель диска: USA (Knitting Factory)
Аудио кодек: FLAC
Тип рипа: image+.cue
Битрейт аудио: lossless
Продолжительность: 53:34
Ben Goldberg clarinet, bass clarinet
John Schott guitar
Trevor Dunn bass
Kenny Wollesen drums, toy piano
1. Tempus Fugit
2. Koko
3. Confirmation
4. Wail
5. Shaw 'Nuff
6. Hot House
7. Cheryl
8. Bebop
9. Hallucinations
10. Donna Lee
11. Un Poco Loco
12. Tempus Fugit
1995 Knitting Factory Works KFW 160
 
EAC Report
Exact Audio Copy V0.99 prebeta 4 from 23. January 2008
EAC extraction logfile from 7. February 2009, 14:14
Ben Goldberg / John Schott / Trevor Dunn / Kenny Wollesen / Junk Genius
Used drive : TSSTcorpCD/DVDW SH-S182M Adapter: 2 ID: 0
Read mode : Secure
Utilize accurate stream : Yes
Defeat audio cache : Yes
Make use of C2 pointers : No
Read offset correction : 6
Overread into Lead-In and Lead-Out : No
Fill up missing offset samples with silence : Yes
Delete leading and trailing silent blocks : No
Null samples used in CRC calculations : Yes
Used interface : Installed external ASPI interface
Used output format : User Defined Encoder
Selected bitrate : 320 kBit/s
Quality : High
Add ID3 tag : No
Command line compressor : C:\Program Files\Exact Audio Copy\FLAC\FLAC.EXE
Additional command line options : -8 -V -T "ARTIST=%a" -T "TITLE=%t" -T "ALBUM=%g" -T "DATE=%y" -T "TRACKNUMBER=%n" -T "GENRE=%m" -T "COMMENT=%e" %s -o %d
TOC of the extracted CD
Track | Start | Length | Start sector | End sector
---------------------------------------------------------
1 | 0:00.00 | 3:17.70 | 0 | 14844
2 | 3:17.70 | 4:13.26 | 14845 | 33845
3 | 7:31.21 | 3:58.16 | 33846 | 51711
4 | 11:29.37 | 3:36.11 | 51712 | 67922
5 | 15:05.48 | 4:24.53 | 67923 | 87775
6 | 19:30.26 | 4:09.07 | 87776 | 106457
7 | 23:39.33 | 4:49.10 | 106458 | 128142
8 | 28:28.43 | 3:04.48 | 128143 | 141990
9 | 31:33.16 | 3:45.34 | 141991 | 158899
10 | 35:18.50 | 5:58.05 | 158900 | 185754
11 | 41:16.55 | 3:10.29 | 185755 | 200033
12 | 44:27.09 | 9:06.48 | 200034 | 241031
Range status and errors
Selected range
Filename C:\Documents and Settings\Igor\My Documents\My Music\eac\Goldberg Schott Dunn Wollesen - Junk Genius.wav
Peak level 100.0 %
Range quality 100.0 %
Test CRC B5B4ABD6
Copy CRC B5B4ABD6
Copy OK
No errors occurred
AccurateRip summary
Track 1 accurately ripped (confidence 1) [E055068B]
Track 2 accurately ripped (confidence 1) [82D5DFEA]
Track 3 accurately ripped (confidence 1) [21C361BC]
Track 4 accurately ripped (confidence 1) [62EF4DB0]
Track 5 accurately ripped (confidence 1) [1DAD69D9]
Track 6 accurately ripped (confidence 1) [8BACACE5]
Track 7 accurately ripped (confidence 1) [E0BF17EE]
Track 8 accurately ripped (confidence 1) [E7B22B66]
Track 9 accurately ripped (confidence 1) [9AF130ED]
Track 10 accurately ripped (confidence 1) [6C8E8367]
Track 11 accurately ripped (confidence 1) [D5D29C1B]
Track 12 accurately ripped (confidence 1) [09DD6A2D]
All tracks accurately ripped
End of status report
Any questions -> support@pro-jazz.com. По всем вопросам пишите -> support@pro-jazz.com
08:03
163
Нет комментариев. Ваш будет первым!