Вы используете незарегистрированную версию компонента "Вкладки"!

Поиск

(jazz, avant.garde, free.jazz) Don Cherry featuring Ornette Coleman & Steve Lacy (1996) , FLAC (tracks+.cue), lossless

Треклист:


Don Cherry . .featuring .Ornette Coleman & Steve Lacy
Жанр: jazz
Год выпуска: 1996
Формат: FLAC (tracks+.cue)
Битрейт аудио: lossless
Продолжительность
Источник: ed2k

tracks

1. Tears Inside
2. The Mystery Song - Don Cherry, Ellington, Duke
3. Mind and Time
4. Evidence - Don Cherry, Monk, Thelonious
5. Tomorrow Is the Question!
6. San Francisco Holiday - Don Cherry, Monk, Thelonious
7. Compassion
8. Who Knows? - Don Cherry, Monk, Thelonious
9. Giggin'
10. Just for You
11. Bird Food
12. Joy of a Toy
13. Motive for Its Use
14. Lonely Woman
15. Humpty Dumpty


 
logfile
Exact Audio Copy V0.99 prebeta 4 from 23. January 2008
EAC extraction logfile from 13. August 2008, 13:46
Don Cherry / Don Cherry
Used drive : PLEXTOR DVDR PX-800A Adapter: 1 ID: 0
Read mode : Secure
Utilize accurate stream : Yes
Defeat audio cache : No
Make use of C2 pointers : No
Read offset correction : 48
Overread into Lead-In and Lead-Out : No
Fill up missing offset samples with silence : Yes
Delete leading and trailing silent blocks : No
Null samples used in CRC calculations : No
Used interface : Native Win32 interface for Win NT & 2000
Used output format : Monkey's Audio Lossless Encoder v3.99 DLL
Sample format : Fast Lossless Compression
TOC of the extracted CD
Track | Start | Length | Start sector | End sector
---------------------------------------------------------
1 | 0:00.32 | 5:04.05 | 32 | 22836
2 | 5:04.37 | 5:48.23 | 22837 | 48959
3 | 10:52.60 | 3:10.40 | 48960 | 63249
4 | 14:03.25 | 5:02.27 | 63250 | 85926
5 | 19:05.52 | 3:12.13 | 85927 | 100339
6 | 22:17.65 | 4:31.42 | 100340 | 120706
7 | 26:49.32 | 4:39.03 | 120707 | 141634
8 | 31:28.35 | 5:28.25 | 141635 | 166259
9 | 36:56.60 | 3:22.12 | 166260 | 181421
10 | 40:18.72 | 3:53.58 | 181422 | 198954
11 | 44:12.55 | 5:31.25 | 198955 | 223804
12 | 49:44.05 | 4:58.17 | 223805 | 246171
13 | 54:42.22 | 5:42.20 | 246172 | 271841
14 | 60:24.42 | 5:00.33 | 271842 | 294374
15 | 65:25.00 | 5:21.67 | 294375 | 318516
Range status and errors
Selected range
Filename M:\Files\Jazz\Audio\SAAR\Temp\Giants of Jazz - Disc 248 -\Don Cherry - Don Cherry.ape
Peak level 100.0 %
Range quality 100.0 %
Copy CRC DFC89922
Copy OK
No errors occurred
AccurateRip summary
Track 1 accurately ripped (confidence 1) [FD51C679]
Track 2 accurately ripped (confidence 1) [B0E3E9C0]
Track 3 accurately ripped (confidence 1) [1521E7FE]
Track 4 accurately ripped (confidence 1) [2C1C872F]
Track 5 accurately ripped (confidence 1) [C32858B4]
Track 6 accurately ripped (confidence 1) [E13574EE]
Track 7 accurately ripped (confidence 1) [3E0D4FD8]
Track 8 accurately ripped (confidence 1) [A6CE870D]
Track 9 accurately ripped (confidence 1) [6A04F968]
Track 10 accurately ripped (confidence 1) [8677C76F]
Track 11 accurately ripped (confidence 1) [0BAFA55C]
Track 12 accurately ripped (confidence 1) [E5076DD8]
Track 13 accurately ripped (confidence 1) [DEE98DE6]
Track 14 accurately ripped (confidence 1) [72A24A8A]
Track 15 accurately ripped (confidence 1) [319959C3]
All tracks accurately ripped
End of status report

другие релизы
Any questions -> support@pro-jazz.com. По всем вопросам пишите -> support@pro-jazz.com
08:04
211
Нет комментариев. Ваш будет первым!