Вы используете незарегистрированную версию компонента "Вкладки"!

Поиск

(Modern Creative / Avant-Garde / Label Bleu) Marc Ducret - Le Kodo - 1989, FLAC (image+.cue), lossless

(Modern Creative / Avant-Garde / Label Bleu) Marc Ducret - Le Kodo - 1989, FLAC (image+.cue), lossless
Треклист:
Marc Ducret - Le Kodo
Жанр: Avant-Garde / Label Bleu
Год выпуска диска: 1989
Производитель диска: France (Label Bleu)
Аудио кодек: FLAC
Тип рипа: image+.cue
Битрейт аудио: lossless
Продолжительность: 59:38
Marc Ducret guitars, fretless guitar
Larry Schneider saxophones
Michel Benita bass
Adam Nussbaum drums
1. Le Kodo
2. Bribes
3. Hélas
4. Courage
5. You And Me And You
6. La Fée Qui Rend les Filles Belles
7. Soft Leg
8. Quelquefois
1989 Label Bleu LBLC 6519
 
EAC Report
Exact Audio Copy V0.99 prebeta 4 from 23. January 2008
EAC extraction logfile from 13. September 2008, 23:26
Marc Ducret / Le Kodo
Used drive : TSSTcorpCD/DVDW SH-S182M Adapter: 2 ID: 1
Read mode : Secure
Utilize accurate stream : Yes
Defeat audio cache : Yes
Make use of C2 pointers : No
Read offset correction : 6
Overread into Lead-In and Lead-Out : No
Fill up missing offset samples with silence : Yes
Delete leading and trailing silent blocks : No
Null samples used in CRC calculations : Yes
Used interface : Installed external ASPI interface
Used output format : User Defined Encoder
Selected bitrate : 1024 kBit/s
Quality : High
Add ID3 tag : No
Command line compressor : C:\Program Files\Exact Audio Copy\FLAC\FLAC.EXE
Additional command line options : -6 -V -T "ARTIST=%a" -T "TITLE=%t" -T "ALBUM=%g" -T "DATE=%y" -T "TRACKNUMBER=%n" -T "GENRE=%m" -T "COMMENT=%e" %s -o %d
TOC of the extracted CD
Track | Start | Length | Start sector | End sector
---------------------------------------------------------
1 | 0:00.32 | 10:34.53 | 32 | 47634
2 | 10:35.10 | 7:56.07 | 47635 | 83341
3 | 18:31.17 | 5:52.33 | 83342 | 109774
4 | 24:23.50 | 10:58.17 | 109775 | 159141
5 | 35:21.67 | 7:09.28 | 159142 | 191344
6 | 42:31.20 | 5:08.60 | 191345 | 214504
7 | 47:40.05 | 7:49.27 | 214505 | 249706
8 | 55:29.32 | 4:08.63 | 249707 | 268369
Range status and errors
Selected range
Filename C:\z\Marc Ducret - Le Kodo.wav
Peak level 100.0 %
Range quality 100.0 %
Copy CRC B0D5AD43
Copy OK
No errors occurred
AccurateRip summary
Track 1 not present in database
Track 2 not present in database
Track 3 not present in database
Track 4 not present in database
Track 5 not present in database
Track 6 not present in database
Track 7 not present in database
Track 8 not present in database
None of the tracks are present in the AccurateRip database
End of status report
Any questions -> support@pro-jazz.com. По всем вопросам пишите -> support@pro-jazz.com
08:02
147
Нет комментариев. Ваш будет первым!