Вы используете незарегистрированную версию компонента "Вкладки"!

Поиск

(Modern Creative, Ambient) Alex Cline / Kaoru / Miya Masaoka / G.E. Stinson - Cloud Plate - 2005, FLAC (image+.cue), lossless

(Modern Creative, Ambient) Alex Cline / Kaoru / Miya Masaoka / G.E. Stinson - Cloud Plate - 2005, FLAC (image+.cue), lossless
Треклист:
Alex Cline / Kaoru / Miya Masaoka / G.E. Stinson - Cloud Plate
Жанр: Modern Creative, Ambient
Год выпуска диска: 2005
Производитель диска: USA (Cryptogramophone)
Аудио кодек: FLAC
Тип рипа: image+.cue
Битрейт аудио: lossless
Продолжительность: 66.20
Трэклист:
1. Ions
2. Robot Mudra
3. Mountain
4. Cloud
5. Naming
6. Visual Drift
7. Assisted Collapse
8. Face
Доп. информация: Alex Cline - percussion
Kaoru - voice, percussion, sound toys, effects
Miya Masaoka - koto, effects
G.E. Stinson - guitars, implements
 
eac log
Exact Audio Copy V0.99 prebeta 4 from 23. January 2008
Отчёт EAC об извлечении, выполненном 10. февраля 2009, 0:26
Alex Cline - Kaoru - Miya Masaoka - G E Stinson / Cloud Plate
Дисковод: Optiarc DVD RW AD-7170A Adapter: 0 ID: 1
Режим чтения : Достоверность
Использование точного потока : Да
Отключение кэша аудио : Да
Использование указателей C2 : Нет
Коррекция смещения при чтении : 48
Способность читать области Lead-in и Lead-out : Нет
Заполнение пропущенных сэмплов тишиной : Да
Удаление блоков с тишиной в начале и конце : Нет
При вычислениях CRC использовались нулевые сэмплы : Да
Интерфейс : Установленный внешний ASPI-интерфейс
Выходной формат : Пользовательский кодировщик
Выбранный битрейт : 768 kBit/s
Качество : Высокий
Добавление ID3-тэга : Нет
Утилита сжатия : C:\Program Files (x86)\Exact Audio Copy\FLAC\FLAC.EXE
Дополнительные параметры : -6 -V -T "ARTIST=%a" -T "TITLE=%t" -T "ALBUM=%g" -T "DATE=%y" -T "TRACKNUMBER=%n" -T "GENRE=%m" -T "COMMENT=%e" %s -o %d
TOC извлечённого CD
Трек | Старт | Длительность | Начальный сектор | Конечный сектор
---------------------------------------------------------------------
1 | 0:00.00 | 4:51.21 | 0 | 21845
2 | 4:51.21 | 13:01.69 | 21846 | 80489
3 | 17:53.15 | 8:50.63 | 80490 | 120302
4 | 26:44.03 | 4:32.16 | 120303 | 140718
5 | 31:16.19 | 2:47.49 | 140719 | 153292
6 | 34:03.68 | 13:22.47 | 153293 | 213489
7 | 47:26.40 | 13:22.04 | 213490 | 273643
8 | 60:48.44 | 5:32.26 | 273644 | 298569
Характеристики диапазона извлечения и сообщения об ошибках
Выбранный диапазон
Имя файла C:\Users\Роман\Documents\Alex Cline - Kaoru - Miya Masaoka - G E Stinson - Cloud Plate.wav
Пиковый уровень 96.6 %
Качество диапазона 99.9 %
CRC копии DB96CABC
Копирование... OK
Ошибок не произошло
AccurateRip: сводка
Трек 1 нет в базе данных
Трек 2 нет в базе данных
Трек 3 нет в базе данных
Трек 4 нет в базе данных
Трек 5 нет в базе данных
Трек 6 нет в базе данных
Трек 7 нет в базе данных
Трек 8 нет в базе данных
Ни одного трека нет в базе AccurateRip
Конец отчёта
Any questions -> support@pro-jazz.com. По всем вопросам пишите -> support@pro-jazz.com
08:02
161
Нет комментариев. Ваш будет первым!