Вы используете незарегистрированную версию компонента "Вкладки"!

Поиск

(Avant-garde) Martin Tetreault & Otomo Yoshihide - 3. AHHH - 2003, APE (image+.cue), lossless

(Avant-garde) Martin Tetreault & Otomo Yoshihide - 3. AHHH - 2003, APE (image+.cue), lossless
Треклист:
Martin Tetreault & Otomo Yoshihide - 3. AHHH
Жанр: Avantgarde
Год выпуска диска: 2003
Производитель диска: Canada
Аудио кодек: APE
Тип рипа: image+.cue
Битрейт аудио: lossless
Продолжительность: 60:08
Трэклист:
1. Brest No. 1 / Le Vauban, 22.04.03 (6:12)
2. Nijmegen No. 1 / Extrapool, 25.04.03 (13:04)
3. Nijmegen No. 2 / Extrapool, 25.04.03 (4:43)
4. Orleans No. 2 / Astrolabe, 27.04.03 (13:18)
5. Grenoble No. 6 / Le 102, 29.04.03 (8:06)
6. Geneve No. 1 / Cave, 12 29.04.03 (14:03)
7. Geneve No. 3 / Cave, 12 29.04.03 (7:48)
Martin Tetreault: turntables
Otomo Yoshihide: turntables
Доп. информация:
 
Отчет ЕАС
Exact Audio Copy V0.99 prebeta 3 from 28. July 2007
Отчёт EAC об извлечении, выполненном 9. февраля 2009, 20:48
Martin Tetreault & Otomo Yoshihide / 3. AHHH
Дисковод: Optiarc DVD RW AD-7170S Adapter: 1 ID: 1
Режим чтения : Достоверность
Использование точного потока : Да
Отключение кэша аудио : Да
Использование указателей C2 : Нет
Коррекция смещения при чтении : 48
Способность читать области Lead-in и Lead-out : Нет
Заполнение пропущенных сэмплов тишиной : Да
Удаление блоков с тишиной в начале и конце : Нет
При вычислениях CRC использовались нулевые сэмплы : Да
Интерфейс : Встроенный Win32-интерфейс для Win NT/2000
Выходной формат : Внутренние WAV-операции
Формат сэмплов : 44.100 Гц; 16 бит; стерео
TOC извлечённого CD
Трек | Старт | Длительность | Начальный сектор | Конечный сектор
---------------------------------------------------------------------
1 | 0:00.00 | 6:14.62 | 0 | 28111
2 | 6:14.62 | 13:06.21 | 28112 | 87082
3 | 19:21.08 | 4:46.29 | 87083 | 108561
4 | 24:07.37 | 13:18.30 | 108562 | 168441
5 | 37:25.67 | 8:10.13 | 168442 | 205204
6 | 45:36.05 | 14:03.07 | 205205 | 268436
7 | 59:39.12 | 7:45.35 | 268437 | 303346
Характеристики диапазона извлечения и сообщения об ошибках
Выбранный диапазон
Имя файла D:\audio_tmp\Martin Tetreault & Otomo Yoshihide - 3. AHHH\Martin Tetreault & Otomo Yoshihide - 3. AHHH.wav
Пиковый уровень 100.0 %
Качество диапазона 100.0 %
CRC копии D48CEE18
Копирование... OK
Ошибок не произошло
AccurateRip: сводка
Трек 1 нет в базе данных
Трек 2 нет в базе данных
Трек 3 нет в базе данных
Трек 4 нет в базе данных
Трек 5 нет в базе данных
Трек 6 нет в базе данных
Трек 7 нет в базе данных
Ни одного трека нет в базе AccurateRip
Конец отчёта
Any questions -> support@pro-jazz.com. По всем вопросам пишите -> support@pro-jazz.com
08:01
154
Нет комментариев. Ваш будет первым!