Вы используете незарегистрированную версию компонента "Вкладки"!

Поиск

(Modern / Piano Solo) Giovanni Mirabassi - Cantopiano - 2006, FLAC (tracks+.cue), lossless

(Modern / Piano Solo) Giovanni Mirabassi - Cantopiano - 2006, FLAC (tracks+.cue), lossless
Треклист:
Giovanni Mirabassi - Cantopiano
Жанр: Modern / Piano Solo
Год выпуска : 2006
Лейбл: Minium
Аудио кодек: FLAC
Тип рипа: tracks+.cue
Битрейт аудио: lossless
Продолжительность: 00:49:54
Рип: What CD


01. Il venait d'avoir dix-huit ans (1:38)
02. Manon (2:51)
03. J'ai pas le temps d'avoir trente ans (3:16)
04. c'que t'es belle (3:29)
05. La canzone di marinella (3:23)
06. Quand maman reviendra (3:35)
07. Cecile ma fille (2:38)
08. La fleur du large (6:18)
09. Sans titre (3:11)
10. Le chaland qui passe (2:51)
11. Les passantes (3:10)
12. J'aimerais tant savoir comment tu te reveilles (3:31)
13. Si tu me payes un verre (4:21)
14. Une ile (4:15)
15. Dis quand reviendras-tu (1:29)

 
EAC
Exact Audio Copy V0.99 prebeta 4 from 23. January 2008
EAC extraction logfile from 6. May 2009, 18:58
Giovanni Mirabassi / Cantopiano
Used drive : HL-DT-STDVDRAM GSA-4167B Adapter: 0 ID: 0
Read mode : Secure
Utilize accurate stream : Yes
Defeat audio cache : Yes
Make use of C2 pointers : No
Read offset correction : 667
Overread into Lead-In and Lead-Out : No
Fill up missing offset samples with silence : Yes
Delete leading and trailing silent blocks : No
Null samples used in CRC calculations : Yes
Used interface : Native Win32 interface for Win NT & 2000
Gap handling : Appended to previous track
Used output format : User Defined Encoder
Selected bitrate : 128 kBit/s
Quality : High
Add ID3 tag : No
Command line compressor : D:\Program Files\Exact Audio Copy\Flac\flac.exe
Additional command line options : -V -8 -T "ARTIST=%a" -T "TITLE=%t" -T "ALBUM=%g" -T "DATE=%y" -T "TRACKNUMBER=%n" -T "GENRE=%m" -T "COMMENT=EAC FLAC -8" %s
TOC of the extracted CD
Track | Start | Length | Start sector | End sector
---------------------------------------------------------
1 | 0:00.00 | 1:37.54 | 0 | 7328
2 | 1:37.54 | 2:50.71 | 7329 | 20149
3 | 4:28.50 | 3:16.17 | 20150 | 34866
4 | 7:44.67 | 3:28.49 | 34867 | 50515
5 | 11:13.41 | 3:22.40 | 50516 | 65705
6 | 14:36.06 | 3:34.38 | 65706 | 81793
7 | 18:10.44 | 2:37.61 | 81794 | 93629
8 | 20:48.30 | 6:17.38 | 93630 | 121942
9 | 27:05.68 | 3:11.16 | 121943 | 136283
10 | 30:17.09 | 2:50.42 | 136284 | 149075
11 | 33:07.51 | 3:10.10 | 149076 | 163335
12 | 36:17.61 | 3:31.33 | 163336 | 179193
13 | 39:49.19 | 4:20.47 | 179194 | 198740
14 | 44:09.66 | 4:15.10 | 198741 | 217875
15 | 48:25.01 | 1:29.17 | 217876 | 224567
Track 1
Filename H:\0 Rip\01 - Il venait d'avoir dix-huit ans.wav
Pre-gap length 0:00:02.00
Peak level 49.8 %
Track quality 100.0 %
Test CRC 57482C40
Copy CRC 57482C40
Copy OK
Track 2
Filename H:\0 Rip\02 - Manon.wav
Peak level 97.6 %
Track quality 100.0 %
Test CRC 5453EC83
Copy CRC 5453EC83
Copy OK
Track 3
Filename H:\0 Rip\03 - J'ai pas le temps d'avoir trente ans.wav
Peak level 90.6 %
Track quality 99.9 %
Test CRC B7913FF8
Copy CRC B7913FF8
Copy OK
Track 4
Filename H:\0 Rip\04 - c'que t'es belle.wav
Peak level 97.7 %
Track quality 100.0 %
Test CRC D0671556
Copy CRC D0671556
Copy OK
Track 5
Filename H:\0 Rip\05 - La canzone di marinella.wav
Peak level 97.1 %
Track quality 100.0 %
Test CRC F333CD5C
Copy CRC F333CD5C
Copy OK
Track 6
Filename H:\0 Rip\06 - Quand maman reviendra.wav
Peak level 97.0 %
Track quality 99.9 %
Test CRC 3D02B60D
Copy CRC 3D02B60D
Copy OK
Track 7
Filename H:\0 Rip\07 - Cecile ma fille.wav
Peak level 63.0 %
Track quality 100.0 %
Test CRC B164194D
Copy CRC B164194D
Copy OK
Track 8
Filename H:\0 Rip\08 - La fleur du large.wav
Peak level 98.0 %
Track quality 100.0 %
Test CRC 343E7D72
Copy CRC 343E7D72
Copy OK
Track 9
Filename H:\0 Rip\09 - Sans titre.wav
Peak level 97.2 %
Track quality 100.0 %
Test CRC D70803A4
Copy CRC D70803A4
Copy OK
Track 10
Filename H:\0 Rip\10 - Le chaland qui passe.wav
Peak level 46.0 %
Track quality 100.0 %
Test CRC 8B1BE396
Copy CRC 8B1BE396
Copy OK
Track 11
Filename H:\0 Rip\11 - Les passantes.wav
Peak level 87.1 %
Track quality 100.0 %
Test CRC 06D11AF7
Copy CRC 06D11AF7
Copy OK
Track 12
Filename H:\0 Rip\12 - J'aimerais tant savoir comment tu te reveilles.wav
Peak level 94.3 %
Track quality 100.0 %
Test CRC A8CE097D
Copy CRC A8CE097D
Copy OK
Track 13
Filename H:\0 Rip\13 - Si tu me payes un verre.wav
Peak level 84.6 %
Track quality 100.0 %
Test CRC FDB95036
Copy CRC FDB95036
Copy OK
Track 14
Filename H:\0 Rip\14 - Une ile.wav
Peak level 97.1 %
Track quality 100.0 %
Test CRC FE074029
Copy CRC FE074029
Copy OK
Track 15
Filename H:\0 Rip\15 - Dis quand reviendras-tu.wav
Peak level 38.6 %
Track quality 100.0 %
Test CRC 2E90BFAB
Copy CRC 2E90BFAB
Copy OK
No errors occurred
End of status report
 
CUE
REM GENRE Jazz
REM DATE 2006
REM DISCID EA0BB20F
REM COMMENT "ExactAudioCopy v0.99pb4"
PERFORMER "Giovanni Mirabassi"
TITLE "Cantopiano"
FILE "01 - Il venait d'avoir dix-huit ans.wav" WAVE
TRACK 01 AUDIO
TITLE "Il venait d'avoir dix-huit ans"
PERFORMER "Giovanni Mirabassi"
INDEX 01 00:00:00
FILE "02 - Manon.wav" WAVE
TRACK 02 AUDIO
TITLE "Manon"
PERFORMER "Giovanni Mirabassi"
INDEX 01 00:00:00
FILE "03 - J'ai pas le temps d'avoir trente ans.wav" WAVE
TRACK 03 AUDIO
TITLE "J'ai pas le temps d'avoir trente ans"
PERFORMER "Giovanni Mirabassi"
INDEX 01 00:00:00
FILE "04 - c'que t'es belle.wav" WAVE
TRACK 04 AUDIO
TITLE "c'que t'es belle"
PERFORMER "Giovanni Mirabassi"
INDEX 01 00:00:00
FILE "05 - La canzone di marinella.wav" WAVE
TRACK 05 AUDIO
TITLE "La canzone di marinella"
PERFORMER "Giovanni Mirabassi"
INDEX 01 00:00:00
FILE "06 - Quand maman reviendra.wav" WAVE
TRACK 06 AUDIO
TITLE "Quand maman reviendra"
PERFORMER "Giovanni Mirabassi"
INDEX 01 00:00:00
FILE "07 - Cecile ma fille.wav" WAVE
TRACK 07 AUDIO
TITLE "Cecile ma fille"
PERFORMER "Giovanni Mirabassi"
INDEX 01 00:00:00
FILE "08 - La fleur du large.wav" WAVE
TRACK 08 AUDIO
TITLE "La fleur du large"
PERFORMER "Giovanni Mirabassi"
INDEX 01 00:00:00
FILE "09 - Sans titre.wav" WAVE
TRACK 09 AUDIO
TITLE "Sans titre"
PERFORMER "Giovanni Mirabassi"
INDEX 01 00:00:00
FILE "10 - Le chaland qui passe.wav" WAVE
TRACK 10 AUDIO
TITLE "Le chaland qui passe"
PERFORMER "Giovanni Mirabassi"
INDEX 01 00:00:00
FILE "11 - Les passantes.wav" WAVE
TRACK 11 AUDIO
TITLE "Les passantes"
PERFORMER "Giovanni Mirabassi"
INDEX 01 00:00:00
FILE "12 - J'aimerais tant savoir comment tu te reveilles.wav" WAVE
TRACK 12 AUDIO
TITLE "J'aimerais tant savoir comment tu te reveilles"
PERFORMER "Giovanni Mirabassi"
INDEX 01 00:00:00
FILE "13 - Si tu me payes un verre.wav" WAVE
TRACK 13 AUDIO
TITLE "Si tu me payes un verre"
PERFORMER "Giovanni Mirabassi"
INDEX 01 00:00:00
FILE "14 - Une ile.wav" WAVE
TRACK 14 AUDIO
TITLE "Une ile"
PERFORMER "Giovanni Mirabassi"
INDEX 01 00:00:00
FILE "15 - Dis quand reviendras-tu.wav" WAVE
TRACK 15 AUDIO
TITLE "Dis quand reviendras-tu"
PERFORMER "Giovanni Mirabassi"
INDEX 01 00:00:00
Any questions -> support@pro-jazz.com. По всем вопросам пишите -> support@pro-jazz.com
15:09
148
Нет комментариев. Ваш будет первым!