Вы используете незарегистрированную версию компонента "Вкладки"!

Поиск

(Avant-garde Jazz, Contemporary Jazz) Marc Ducret - Le sens de la marche - 2009, FLAC (tracks+.cue), lossless EAC 100%

(Avant-garde Jazz, Contemporary Jazz) Marc Ducret - Le sens de la marche - 2009, FLAC (tracks+.cue), lossless EAC 100%
Треклист:
Marc Ducret - Le sens de la marche
Жанр: Avant-garde Jazz, Contemporary Jazz
Год выпуска диска: 2009
Производитель диска: France (Ayler Records)
Аудио кодек: FLAC
Тип рипа: tracks+.cue
Битрейт аудио: lossless EAC 100%
Продолжительность: 1:12
Трэклист:
01. Total machine (Marc Ducret - Le sens de la marche - 2007).flac
02. Tapage (Marc Ducret - Le sens de la marche - 2007).flac
03. Le menteur dans l'annexe (Marc Ducret - Le sens de la marche - 2007).flac
04. Aquatique (Marc Ducret - Le sens de la marche - 2007).flac
05. Nouvelles nouvelles du front (Marc Ducret - Le sens de la marche - 2007).flac
 
Log EAC
Exact Audio Copy V0.99 prebeta 4 from 23. January 2008
EAC extraction logfile from 26. August 2009, 0:14
Marc Ducret / Le sens de la marche
Used drive : Optiarc DVD RW AD-7200S Adapter: 2 ID: 1
Read mode : Secure
Utilize accurate stream : Yes
Defeat audio cache : Yes
Make use of C2 pointers : No
Read offset correction : 48
Overread into Lead-In and Lead-Out : No
Fill up missing offset samples with silence : Yes
Delete leading and trailing silent blocks : No
Null samples used in CRC calculations : Yes
Used interface : Native Win32 interface for Win NT & 2000
Gap handling : Appended to previous track
Used output format : User Defined Encoder
Selected bitrate : 768 kBit/s
Quality : High
Add ID3 tag : No
Command line compressor : D:\Program Files\FLAC\flac.exe
Additional command line options : -V -8 -T "artist=%a" -T "title=%t" -T "album=%g" -T "date=%y" -T "tracknumber=%n" -T "genre=%m" %s
TOC of the extracted CD
Track | Start | Length | Start sector | End sector
---------------------------------------------------------
1 | 0:00.00 | 14:47.24 | 0 | 66548
2 | 14:47.24 | 9:40.06 | 66549 | 110054
3 | 24:27.30 | 12:08.51 | 110055 | 164705
4 | 36:36.06 | 9:55.04 | 164706 | 209334
5 | 46:31.10 | 26:17.43 | 209335 | 327652
Track 1
Filename I:\Music\WCD\01. Total machine (Marc Ducret - Le sens de la marche - 2007).wav
Pre-gap length 0:00:02.00
Peak level 97.7 %
Track quality 100.0 %
Test CRC 82A239D6
Copy CRC 82A239D6
Accurately ripped (confidence 2) [A066BB56]
Copy OK
Track 2
Filename I:\Music\WCD\02. Tapage (Marc Ducret - Le sens de la marche - 2007).wav
Peak level 99.3 %
Track quality 99.9 %
Test CRC 6B929C96
Copy CRC 6B929C96
Accurately ripped (confidence 2) [84DACCEC]
Copy OK
Track 3
Filename I:\Music\WCD\03. Le menteur dans l'annexe (Marc Ducret - Le sens de la marche - 2007).wav
Peak level 97.7 %
Track quality 100.0 %
Test CRC 727E0439
Copy CRC 727E0439
Accurately ripped (confidence 2) [F87C89EF]
Copy OK
Track 4
Filename I:\Music\WCD\04. Aquatique (Marc Ducret - Le sens de la marche - 2007).wav
Peak level 92.2 %
Track quality 99.9 %
Test CRC 1F8F2C8E
Copy CRC 1F8F2C8E
Accurately ripped (confidence 2) [0E2C990E]
Copy OK
Track 5
Filename I:\Music\WCD\05. Nouvelles nouvelles du front (Marc Ducret - Le sens de la marche - 2007).wav
Peak level 96.6 %
Track quality 100.0 %
Test CRC 72A5407E
Copy CRC 72A5407E
Accurately ripped (confidence 2) [1F3A7D29]
Copy OK
All tracks accurately ripped
No errors occurred
End of status report
 
Содержание индексной карты .CUE
REM GENRE Jazz
REM DATE 2007
REM DISCID 58111005
REM COMMENT "ExactAudioCopy v0.99pb4"
FILE "01. Total machine (Marc Ducret - Le sens de la marche - 2007).wav" WAVE
TRACK 01 AUDIO
INDEX 01 00:00:00
FILE "02. Tapage (Marc Ducret - Le sens de la marche - 2007).wav" WAVE
TRACK 02 AUDIO
INDEX 01 00:00:00
FILE "03. Le menteur dans l'annexe (Marc Ducret - Le sens de la marche - 2007).wav" WAVE
TRACK 03 AUDIO
INDEX 01 00:00:00
FILE "04. Aquatique (Marc Ducret - Le sens de la marche - 2007).wav" WAVE
TRACK 04 AUDIO
INDEX 01 00:00:00
FILE "05. Nouvelles nouvelles du front (Marc Ducret - Le sens de la marche - 2007).wav" WAVE
TRACK 05 AUDIO
INDEX 01 00:00:00
allmusic.com
Any questions -> support@pro-jazz.com. По всем вопросам пишите -> support@pro-jazz.com
15:09
151
Нет комментариев. Ваш будет первым!