Поиск

(Modern Jazz) The Julius Hemphill Quartet - Flat-out Jump Suite (Black Saint) - 1993, FLAC (image+.cue), lossless

(Modern Jazz) The Julius Hemphill Quartet - Flat-out Jump Suite (Black Saint) - 1993, FLAC (image+.cue), lossless
Треклист:
The Julius Hemphill Quartet - Flat-out Jump Suite (Black Saint)
Жанр: Modern Jazz
Год выпуска диска: 1993
Записано: Barigozzi Studios, Milano, June 4 & 5, 1980
Производитель диска: Italy (Black Saint 120040)
Аудио кодек: FLAC
Тип рипа: image+.cue
Битрейт аудио: lossless
Трэклист:
1.Ear (Hemphill) 8:54
2.Mind(1st Part) (Hemphill) 12:25
3.Mind(2nd Part) (Hemphill) 3:17
4.Heart (Hemphill) 9:50
5.Body (Hemphill) 6:58
Доп. информация:
Personell:
Julius Hemphill(fl,ts),
Olu Dara(tp),
Abdul Wadul(cello),
Warren Smith(perc)
Ещё один Хэмфилл... На сей раз с квартетом...
И пусть любители Тим Берна скажут, что формат его квартетов с виолончелью и трубой взят из третьих рук
Здесь ищите линки на предыдущих Хэмфилов на форуме
 
немного информации от Brian Olewnick с AMG
A suite in four parts aligned with aspects of sensual awareness, Julius Hemphill's Flat-Out Jump Suite runs from the light and delicate to the hard and funky. "Ear" flutters by on the leader's flute, all gossamer and weightlessness, supported by Warren Smith's soft cymbal work. Olu Dara's clear, gumbo-soaked trumpet, one of the great sounds from the '80s jazz avant-garde, heralds "Body," in conjunction with Abdul Wadud's bluesy cello. With "Mind," the pace picks up — Hemphill switches to tenor and the piece achieves a nice, loose throb as much of the time is devoted to collective improvisation. Finally, with "Body," the natural progression reaches its logical destination, a funky groove all supple and greasy. If not up to the ecstatic levels of his classic "The Hard Blues," it's still an easily enjoyable number with Wadud laying down cooking lines like few other cellists dream of. Flat-Out Jump Suite is not in the top shelf of Hemphill albums, but it's a solid set from a quartet of fine musicians.
 
eac log
Exact Audio Copy V0.99 prebeta 3 from 28. July 2007
EAC extraction logfile from 31. October 2008, 21:40
julius hemphill quartet / FLAT-OUT JUMP SUITE
Used drive : HL-DT-STDVDRAM GSA-4165B Adapter: 1 ID: 0
Read mode : Secure
Utilize accurate stream : Yes
Defeat audio cache : Yes
Make use of C2 pointers : No
Read offset correction : 667
Overread into Lead-In and Lead-Out : No
Fill up missing offset samples with silence : Yes
Delete leading and trailing silent blocks : No
Null samples used in CRC calculations : No
Used interface : Native Win32 interface for Win NT & 2000
Used output format : User Defined Encoder
Selected bitrate : 768 kBit/s
Quality : High
Add ID3 tag : No
Command line compressor : C:\Program Files\Exact Audio Copy\FLAC\FLAC.EXE
Additional command line options : -6 -V -T "ARTIST=%a" -T "TITLE=%t" -T "ALBUM=%g" -T "DATE=%y" -T "TRACKNUMBER=%n" -T "GENRE=%m" -T "COMMENT=%e" %s -o %d
TOC of the extracted CD
Track | Start | Length | Start sector | End sector
---------------------------------------------------------
1 | 0:00.33 | 8:52.57 | 33 | 39989
2 | 8:53.15 | 12:28.00 | 39990 | 96089
3 | 21:21.15 | 3:18.28 | 96090 | 110967
4 | 24:39.43 | 9:50.65 | 110968 | 155282
5 | 34:30.33 | 7:03.00 | 155283 | 187007
Range status and errors
Selected range
Filename F:\DATA\Music\Torrent\0_My_Music\Julius Hemphill\FLAT-OUT JUMP SUITE (1980)\julius hemphill quartet - FLAT-OUT JUMP SUITE.wav
Peak level 100.0 %
Range quality 100.0 %
Copy CRC 752CE7FF
Copy OK
No errors occurred
AccurateRip summary
Track 1 cannot be verified as accurate (confidence 1) [E4DAC3F1], AccurateRip returned [4D58E62C]
Track 2 cannot be verified as accurate (confidence 1) [55660A6B], AccurateRip returned [8AB136B2]
Track 3 cannot be verified as accurate (confidence 1) [A7E9D028], AccurateRip returned [4B9CDB25]
Track 4 cannot be verified as accurate (confidence 1) [79CFC1FB], AccurateRip returned [3E8DEA1F]
Track 5 cannot be verified as accurate (confidence 1) [54C2C409], AccurateRip returned [5E28E5B6]
No tracks could be verified as accurate
You may have a different pressing from the one(s) in the database
End of status report
Приватный:
Нет (DHT включён)
Размер:
196.35 Мб (205,890,289 байт) » файлов: 5
Участники:
0 раздают, 0 качают (0 участников всего)
Внешние участники:
2 раздают, 1 качают (3 участников всего) [ Обновить ]
No seeders - write a personal message to user M0p94ok. Нет сидеров - пишите личное сообщение пользователю M0p94ok.
04:37
65
Нет комментариев. Ваш будет первым!