Поиск

(Jazz) Paul Bley Trio - Blood - 1966, FLAC (tracks+.cue), lossless

(Jazz) Paul Bley Trio - Blood - 1966, FLAC (tracks+.cue), lossless
Треклист:
Paul Bley Trio - Blood
Жанр: Jazz
Год выпуска диска: 1966
Производитель диска: Canada
Аудио кодек: FLAC
Тип рипа: tracks+.cue
Битрейт аудио: lossless
Продолжительность: 44:23
Трэклист:
01 - Blood
02 - Albert's Love Theme
03 - El Cordobes
04 - Only Sweetly
05 - Seven
06 - Mister Joy
07 - Ramblin'
08 - Kid Dynamite
09 - Nothing Ever Was, Anyeay
10 - Pig Foot
Доп. информация:
 
состав
Paul Bley - piano
Mark Levinson - bass
Barry Altschul - drums
 
log
Exact Audio Copy V0.99 prebeta 4 from 23. January 2008
EAC extraction logfile from 21. May 2008, 14:51
Paul Bley Trio / Blood
Used drive : _NEC DVD_RW ND-3520A Adapter: 1 ID: 0
Read mode : Secure
Utilize accurate stream : Yes
Defeat audio cache : Yes
Make use of C2 pointers : No
Read offset correction : 48
Overread into Lead-In and Lead-Out : No
Fill up missing offset samples with silence : Yes
Delete leading and trailing silent blocks : No
Null samples used in CRC calculations : Yes
Used interface : Installed external ASPI interface
Gap handling : Appended to previous track
Used output format : User Defined Encoder
Selected bitrate : 1024 kBit/s
Quality : High
Add ID3 tag : No
Command line compressor : C:\Program Files\FLAC\flac.exe
Additional command line options : -8 -V -T "ARTIST=%a" -T "TITLE=%t" -T "ALBUM=%g" -T "DATE=%y" -T "TRACKNUMBER=%n" -T "GENRE=%m" -T "COMMENT=EAC FLAC -8" %s
TOC of the extracted CD
Track | Start | Length | Start sector | End sector
---------------------------------------------------------
1 | 0:00.00 | 4:28.25 | 0 | 20124
2 | 4:28.25 | 5:17.47 | 20125 | 43946
3 | 9:45.72 | 3:53.05 | 43947 | 61426
4 | 13:39.02 | 6:25.58 | 61427 | 90359
5 | 20:04.60 | 2:43.72 | 90360 | 102656
6 | 22:48.57 | 5:24.60 | 102657 | 127016
7 | 28:13.42 | 4:44.60 | 127017 | 148376
8 | 32:58.27 | 3:01.00 | 148377 | 161951
9 | 35:59.27 | 5:49.18 | 161952 | 188144
10 | 41:48.45 | 2:34.37 | 188145 | 199731
Track 1
Filename C:\Documents and Settings\All Users\Documents\Uploads\P\Paul Bley Trio - Blood (1966) [FLAC]\01 - Blood.wav
Pre-gap length 0:00:02.00
Peak level 100.0 %
Track quality 100.0 %
Test CRC 3FDF8141
Copy CRC 3FDF8141
Track not present in AccurateRip database
Copy OK
Track 2
Filename C:\Documents and Settings\All Users\Documents\Uploads\P\Paul Bley Trio - Blood (1966) [FLAC]\02 - Albert's Love Theme.wav
Pre-gap length 0:00:02.05
Peak level 57.2 %
Track quality 100.0 %
Test CRC C0505408
Copy CRC C0505408
Track not present in AccurateRip database
Copy OK
Track 3
Filename C:\Documents and Settings\All Users\Documents\Uploads\P\Paul Bley Trio - Blood (1966) [FLAC]\03 - El Cordobes.wav
Pre-gap length 0:00:06.08
Peak level 100.0 %
Track quality 100.0 %
Test CRC 27F9C10B
Copy CRC 27F9C10B
Track not present in AccurateRip database
Copy OK
Track 4
Filename C:\Documents and Settings\All Users\Documents\Uploads\P\Paul Bley Trio - Blood (1966) [FLAC]\04 - Only Sweetly.wav
Pre-gap length 0:00:03.06
Peak level 78.7 %
Track quality 100.0 %
Test CRC FA9F3F23
Copy CRC FA9F3F23
Track not present in AccurateRip database
Copy OK
Track 5
Filename C:\Documents and Settings\All Users\Documents\Uploads\P\Paul Bley Trio - Blood (1966) [FLAC]\05 - Seven.wav
Pre-gap length 0:00:03.05
Peak level 44.9 %
Track quality 100.0 %
Test CRC F3129A17
Copy CRC F3129A17
Track not present in AccurateRip database
Copy OK
Track 6
Filename C:\Documents and Settings\All Users\Documents\Uploads\P\Paul Bley Trio - Blood (1966) [FLAC]\06 - Mister Joy.wav
Pre-gap length 0:00:02.05
Peak level 78.7 %
Track quality 100.0 %
Test CRC 45F8DE46
Copy CRC 45F8DE46
Track not present in AccurateRip database
Copy OK
Track 7
Filename C:\Documents and Settings\All Users\Documents\Uploads\P\Paul Bley Trio - Blood (1966) [FLAC]\07 - Ramblin'.wav
Pre-gap length 0:00:00.21
Peak level 96.7 %
Track quality 100.0 %
Test CRC AED8DBB3
Copy CRC AED8DBB3
Track not present in AccurateRip database
Copy OK
Track 8
Filename C:\Documents and Settings\All Users\Documents\Uploads\P\Paul Bley Trio - Blood (1966) [FLAC]\08 - Kid Dynamite.wav
Pre-gap length 0:00:02.10
Peak level 100.0 %
Track quality 99.9 %
Test CRC 635736E5
Copy CRC 635736E5
Track not present in AccurateRip database
Copy OK
Track 9
Filename C:\Documents and Settings\All Users\Documents\Uploads\P\Paul Bley Trio - Blood (1966) [FLAC]\09 - Nothing Ever Was, Anyway.wav
Pre-gap length 0:00:03.04
Peak level 63.6 %
Track quality 100.0 %
Test CRC F0F6EB4B
Copy CRC F0F6EB4B
Track not present in AccurateRip database
Copy OK
Track 10
Filename C:\Documents and Settings\All Users\Documents\Uploads\P\Paul Bley Trio - Blood (1966) [FLAC]\10 - Pig Foot.wav
Pre-gap length 0:00:00.25
Peak level 87.5 %
Track quality 100.0 %
Test CRC 1D732A5A
Copy CRC 1D732A5A
Track not present in AccurateRip database
Copy OK
None of the tracks are present in the AccurateRip database
No errors occurred
End of status report
 
audiochecker
AUDIOCHECKER v2.0 beta (build 457) - by Dester - opdester@freemail.hu
~~~~~~~~~~~~~~~~~~~~~~~~~~~~~~~~~~
-=== DO NOT EDIT THIS FILE! ===-
Path: ...\Paul Bley Trio - Blood (1966) [FLAC]
01 -=- 01 - Blood.flac -=- CDDA (99%)
02 -=- 02 - Albert's Love Theme.flac -=- CDDA (100%)
03 -=- 03 - El Cordobes.flac -=- CDDA (100%)
04 -=- 04 - Only Sweetly.flac -=- CDDA (100%)
05 -=- 05 - Seven.flac -=- CDDA (100%)
06 -=- 06 - Mister Joy.flac -=- CDDA (100%)
07 -=- 07 - Ramblin'.flac -=- CDDA (100%)
08 -=- 08 - Kid Dynamite.flac -=- CDDA (100%)
09 -=- 09 - Nothing Ever Was, Anyway.flac -=- CDDA (100%)
10 -=- 10 - Pig Foot.flac -=- CDDA (100%)
Summary 99,90% CDDA
17675572
Приватный:
Нет (DHT включён)
Размер:
224.87 Мб (235,797,436 байт) » файлов: 15
Участники:
0 раздают, 0 качают (0 участников всего)
Внешние участники:
2 раздают, 1 качают (3 участников всего) [ Обновить ]
No seeders - write a personal message to user M0p94ok. Нет сидеров - пишите личное сообщение пользователю M0p94ok.
04:36
69
Нет комментариев. Ваш будет первым!