Поиск

(Modern Free / Avant-Garde) Atomic - Boom Boom - 2003, FLAC (image+.cue), lossless

(Modern Free / Avant-Garde) Atomic - Boom Boom - 2003, FLAC (image+.cue), lossless
Треклист:
Atomic - Boom Boom
Жанр: Modern Free / Avant-Garde
Год выпуска диска: 2003
Производитель диска: EU
Аудио кодек: FLAC
Тип рипа: image+.cue
Битрейт аудио: lossless
Продолжительность: 56:34
Fredrik Ljungkvist tenor saxophone, Bb clarinet
Magnus Broo trumpet
Håvard Wiik piano
Ingebrigt Håker Flaten bass
Paal Nilssen-Love drums, percussion
Toner Frön För
Boom Boom
Praeludium
Feets From Above
Cleaning The Dome
Re-Lee
Alla Dansar Samba Til Tyst Musik
Hyper
Pyramid Song
 
EAC Report
Exact Audio Copy V0.99 prebeta 4 from 23. January 2008
EAC extraction logfile from 24. October 2008, 21:08
Atomic / Boom Boom
Used drive : TSSTcorpCD/DVDW SH-S182M Adapter: 2 ID: 0
Read mode : Secure
Utilize accurate stream : Yes
Defeat audio cache : Yes
Make use of C2 pointers : No
Read offset correction : 6
Overread into Lead-In and Lead-Out : No
Fill up missing offset samples with silence : Yes
Delete leading and trailing silent blocks : No
Null samples used in CRC calculations : Yes
Used interface : Installed external ASPI interface
Used output format : User Defined Encoder
Selected bitrate : 1024 kBit/s
Quality : High
Add ID3 tag : No
Command line compressor : C:\Program Files\Exact Audio Copy\FLAC\FLAC.EXE
Additional command line options : -6 -V -T "ARTIST=%a" -T "TITLE=%t" -T "ALBUM=%g" -T "DATE=%y" -T "TRACKNUMBER=%n" -T "GENRE=%m" -T "COMMENT=%e" %s -o %d
TOC of the extracted CD
Track | Start | Length | Start sector | End sector
---------------------------------------------------------
1 | 0:00.00 | 5:33.63 | 0 | 25037
2 | 5:33.63 | 10:10.40 | 25038 | 70827
3 | 15:44.28 | 6:52.36 | 70828 | 101763
4 | 22:36.64 | 6:02.02 | 101764 | 128915
5 | 28:38.66 | 5:30.05 | 128916 | 153670
6 | 34:08.71 | 2:52.00 | 153671 | 166570
7 | 37:00.71 | 7:57.09 | 166571 | 202354
8 | 44:58.05 | 4:44.19 | 202355 | 223673
9 | 49:42.24 | 6:51.71 | 223674 | 254569
Range status and errors
Selected range
Filename C:\z\Atomic - Boom Boom.wav
Peak level 97.9 %
Range quality 100.0 %
Copy CRC FD89163F
Copy OK
No errors occurred
AccurateRip summary
Track 1 not present in database
Track 2 not present in database
Track 3 not present in database
Track 4 not present in database
Track 5 not present in database
Track 6 not present in database
Track 7 not present in database
Track 8 not present in database
Track 9 not present in database
None of the tracks are present in the AccurateRip database
End of status report
Приватный:
Нет (DHT включён)
Размер:
359.98 Мб (377,468,747 байт) » файлов: 5
Участники:
0 раздают, 0 качают (0 участников всего)
Внешние участники:
2 раздают, 1 качают (3 участников всего) [ Обновить ]
No seeders - write a personal message to user M0p94ok. Нет сидеров - пишите личное сообщение пользователю M0p94ok.
04:35
64
Нет комментариев. Ваш будет первым!