Поиск

(Free Jazz, NYC Downtown) Wayne Horvitz (The Four Plus One Ensemble) - From A Window - 2001, APE (image+.cue), lossless

Треклист:
Wayne Horvitz (The Four Plus One Ensemble) - From A Window
Жанр: Free Jazz, NYC Downtown
Год выпуска диска: 2001
Производитель диска: Japan
Лейбл: Avant
Аудио кодек: APE
Тип рипа: image+.cue
Битрейт аудио: lossless
Продолжительность: 50 min
Трэклист:
From A Window
1. Crispin and Lisa's Duet
2. Sweeter Than the Day
3. Julian's Ballad
4. People Just Float
5. Leave Here Now
6. From a Window
7. Willy's Music
Доп. информация: Рип сделан с оригинального CD AVAN 080
Музыканты:
The Four Plus One Ensemble
Wayne Horvitz - piano, prepared piano, hammond B-3, pump organ, synthesizers and toy piano
Eyvind Kang - violin and viola
Tucker Martine - live electronic processing and live drum machine
Julian Priester - trombone
Reggie Watts - keyboards, vocals, live drum machine and piano
Cпециально приглашенный гость:
Skerik - baritone sax
Бессоница Уэйна Хорвица привела к появлению большинства композиций этого альбома... Очень приятная работа...
 
EAC Log
Exact Audio Copy V0.99 prebeta 4 from 23. January 2008
EAC extraction logfile from 3. November 2008, 20:05
Wayne Horvitz / From a Window
Used drive : TSSTcorpCD/DVDW SH-W162C Adapter: 0 ID: 0
Read mode : Secure
Utilize accurate stream : Yes
Defeat audio cache : Yes
Make use of C2 pointers : No
Read offset correction : 6
Overread into Lead-In and Lead-Out : No
Fill up missing offset samples with silence : Yes
Delete leading and trailing silent blocks : No
Null samples used in CRC calculations : Yes
Used interface : Installed external ASPI interface
Used output format : Internal WAV Routines
Sample format : 44.100 Hz; 16 Bit; Stereo
Use compression offset : 0
TOC of the extracted CD
Track | Start | Length | Start sector | End sector
---------------------------------------------------------
1 | 0:00.00 | 5:17.12 | 0 | 23786
2 | 5:17.12 | 5:36.70 | 23787 | 49056
3 | 10:54.07 | 5:28.33 | 49057 | 73689
4 | 16:22.40 | 6:31.47 | 73690 | 103061
5 | 22:54.12 | 10:15.40 | 103062 | 149226
6 | 33:09.52 | 8:38.35 | 149227 | 188111
7 | 41:48.12 | 8:09.00 | 188112 | 224786
Range status and errors
Selected range
Filename C:\Wayne Horvitz\2001, From A Window\Wayne Horvitz - From a Window.wav
Peak level 94.3 %
Range quality 100.0 %
Copy CRC 4B886D9E
Copy OK
No errors occurred
End of status report
Мои раздачи
Приватный:
Нет (DHT включён)
Размер:
190.53 Мб (199,781,984 байт) » файлов: 4
Участники:
0 раздают, 0 качают (0 участников всего)
Внешние участники:
1 раздают, 0 качают (1 участников всего) [ Обновить ]
No seeders - write a personal message to user M0p94ok. Нет сидеров - пишите личное сообщение пользователю M0p94ok.
04:51
79
Нет комментариев. Ваш будет первым!