Поиск

(Jazz, Free Improvisation, Avant) Rob Reddy's Sleeping Dogs - Seeing by the Light of My Own Candle - 2001, APE (image+.cue)

Треклист:
Rob Reddy's Sleeping Dogs - Seeing by the Light of My Own Candle

Жанр: Jazz, Free Improvisation, Avant
Год выпуска диска: 2001
Производитель диска: USA
Лейбл: Knitting Factory Works
Аудио кодек: APE
Тип рипа: image+.cue
Битрейт аудио: lossless
Продолжительность: 55 min
Трэклист:
Seeing by the Light of My Own Candle
1. Street Angel House Devil
2. Victim
3. My Own Candle
4. Child
5. Rjoc
6. See the Elephant
7. Prayer III
Доп. информация: Рип сделан с оригинального CD KFW291
Музыканты:
Rob Reddy - soprano and alto saxaphones
Charlie Burnham - violin and mandolin
John Carlson - trumpet and pocket trumpet
Dom Richards - acoustic bass
Guillermo E. Brown - drums
Нью-Йоркскому саксофонисту Робу Рэдди посчастливилось работать с целым созвездием музыкантов-вольнодумцев, среди которых Рональд Шеннон Джексон, Дэйв Даглас и Рашид Али... Этот альбом, вышедший в 2001-ом году на лейбле Knitting Factory, содержит работу его аккустического квинтета Sleeping Dogs и показывает Рэдди интригующим композитором и демократичным бэнд-лидером...
Этого альбома не было в базе данных EAC-а...
 
EAC Log
Exact Audio Copy V0.99 prebeta 4 from 23. January 2008
EAC extraction logfile from 3. November 2008, 20:51
Rob Reddy's Sleeping Dogs / Seeing by the Light of My Own Candle
Used drive : TSSTcorpCD/DVDW SH-W162C Adapter: 0 ID: 0
Read mode : Secure
Utilize accurate stream : Yes
Defeat audio cache : Yes
Make use of C2 pointers : No
Read offset correction : 6
Overread into Lead-In and Lead-Out : No
Fill up missing offset samples with silence : Yes
Delete leading and trailing silent blocks : No
Null samples used in CRC calculations : Yes
Used interface : Installed external ASPI interface
Used output format : Internal WAV Routines
Sample format : 44.100 Hz; 16 Bit; Stereo
Use compression offset : 0
TOC of the extracted CD
Track | Start | Length | Start sector | End sector
---------------------------------------------------------
1 | 0:00.00 | 8:28.74 | 0 | 38173
2 | 8:28.74 | 4:59.44 | 38174 | 60642
3 | 13:28.43 | 12:27.03 | 60643 | 116670
4 | 25:55.46 | 8:55.69 | 116671 | 156864
5 | 34:51.40 | 5:40.16 | 156865 | 182380
6 | 40:31.56 | 5:49.30 | 182381 | 208585
7 | 46:21.11 | 8:35.35 | 208586 | 247245
Range status and errors
Selected range
Filename C:\Rob Reddy's Sleeping Dogs\2001, Seeing by the Light of My Own Candle\Rob Reddy's Sleeping Dogs - Seeing by the Light of My Own Candle.wav
Peak level 90.5 %
Range quality 99.9 %
Copy CRC 79A4F9F4
Copy OK
No errors occurred
End of status report
Мои раздачи
Приватный:
Нет (DHT включён)
Размер:
304.85 Мб (319,660,160 байт) » файлов: 4
Участники:
0 раздают, 0 качают (0 участников всего)
Внешние участники:
1 раздают, 0 качают (1 участников всего) [ Обновить ]
No seeders - write a personal message to user M0p94ok. Нет сидеров - пишите личное сообщение пользователю M0p94ok.
04:52
54
Нет комментариев. Ваш будет первым!