Поиск

(Avant-Garde) Don Cherry / Dewey Redman / Charlie Haden / Ed Blackwell - Old and New Dreams[Black Saint] - 1977, APE (image+.cue), lossless

(Avant-Garde) Don Cherry / Dewey Redman / Charlie Haden / Ed Blackwell - Old and New Dreams[Black Saint] - 1977, APE (image+.cue), lossless
Треклист:
Don Cherry / Dewey Redman / Charlie Haden / Ed Blackwell - Old and New Dreams[Black Saint]
Жанр: Avant-Garde
Год выпуска диска: 1977
Производитель диска: Italy
Аудио кодек: APE
Тип рипа: image+.cue
Битрейт аудио: lossless
Продолжительность: 43:31
Трэклист:
1 Handwoven- Coleman 6:53
2 Dewey's Tune- Redman 5:52
3 Chairman Mao- Haden 7:33
4 Next to the Quiet Stream- Cherry 6:42
5 Augmented- Cherry 10:05
6 Old and New Dreams- Redman 6:26
Доп. информация: Рип сделан собственноручно,ковры внутри.Оригинал из собрания Дмитрия М.(Одесса)
 
Отчёт EAC об извлечении
Exact Audio Copy V0.99 prebeta 3 from 28. July 2007
Отчёт EAC об извлечении, выполненном 3. ноября 2008, 21:26
Old And New Dreams / Old And New Dreams (Black Saint)
Дисковод: Optiarc DVD RW AD-7203A Adapter: 0 ID: 1
Режим чтения : Достоверность
Использование точного потока : Да
Отключение кэша аудио : Да
Использование указателей C2 : Нет
Коррекция смещения при чтении : 48
Способность читать области Lead-in и Lead-out : Нет
Заполнение пропущенных сэмплов тишиной : Да
Удаление блоков с тишиной в начале и конце : Нет
При вычислениях CRC использовались нулевые сэмплы : Да
Интерфейс : Установленный внешний ASPI-интерфейс
Выходной формат : Monkey's Audio Lossless Encoder v3.99 DLL
Формат сэмплов : Normal Lossless Compression
TOC извлечённого CD
Трек | Старт | Длительность | Начальный сектор | Конечный сектор
---------------------------------------------------------------------
1 | 0:00.32 | 6:57.20 | 32 | 31326
2 | 6:57.52 | 5:57.28 | 31327 | 58129
3 | 12:55.05 | 7:39.02 | 58130 | 92556
4 | 20:34.07 | 6:48.63 | 92557 | 123219
5 | 27:22.70 | 10:12.10 | 123220 | 169129
6 | 37:35.05 | 6:27.07 | 169130 | 198161
Характеристики диапазона извлечения и сообщения об ошибках
Выбранный диапазон
Имя файла C:\Documents and Settings\1\Рабочий стол\Old And New Dreams - Old And New Dreams (Black Saint).ape
Пиковый уровень 100.0 %
Качество диапазона 100.0 %
CRC теста 042F46E6
CRC копии 042F46E6
Копирование... OK
Ошибок не произошло
AccurateRip: сводка
Трек 1 нет в базе данных
Трек 2 нет в базе данных
Трек 3 нет в базе данных
Трек 4 нет в базе данных
Трек 5 нет в базе данных
Трек 6 нет в базе данных
Ни одного трека нет в базе AccurateRip
Конец отчёта
http://rutracker.org/forum/viewtopic.php?t=1020571 -есть еще такой Don Cherry / Dewey Redman / Charlie Haden / Ed Blackwell - Old and New Dreams (ECM 1154)
Приватный:
Нет (DHT включён)
Размер:
247.17 Мб (259,177,657 байт) » файлов: 10
Участники:
0 раздают, 0 качают (0 участников всего)
Внешние участники:
5 раздают, 1 качают (6 участников всего) [ Обновить ]
No seeders - write a personal message to user M0p94ok. Нет сидеров - пишите личное сообщение пользователю M0p94ok.
04:53
46
Нет комментариев. Ваш будет первым!