Поиск

(avantgarde, free-jazz, Tzadik) Anthony Braxton, William Parker, Milford Graves - Beyond Quantum - 2008, FLAC (image+.cue), lossless

(avantgarde, free-jazz, Tzadik) Anthony Braxton, William Parker, Milford Graves - Beyond Quantum - 2008, FLAC (image+.cue), lossless
Треклист:
Anthony Braxton, William Parker, Milford Graves - Beyond Quantum
Жанр: avantgarde, free-jazz, Tzadik
Год выпуска диска: 2008
Производитель диска: USA (Tzadik)
Аудио кодек: FLAC
Тип рипа: image+.cue
Битрейт аудио: lossless
Продолжительность: 60.04
Трэклист:
1. First Meeting
2. Second Meeting
3. Third Meeting
4. Fourth Meeting
5. Fifth Meeting
Доп. информация: Anthony Braxton - saxophones
William Parker - bass
Milford Graves - drums
recorded & mixed by Bill Laswell
produced by Bill Laswell & John Zorn
 
eac log
Exact Audio Copy V0.99 prebeta 4 from 23. January 2008
Отчёт EAC об извлечении, выполненном 4. ноября 2008, 0:22
Anthony Braxton, William Parker, Milford Graves / Beyond Quantum
Дисковод: Optiarc DVD RW AD-7170A Adapter: 0 ID: 1
Режим чтения : Достоверность
Использование точного потока : Да
Отключение кэша аудио : Да
Использование указателей C2 : Нет
Коррекция смещения при чтении : 48
Способность читать области Lead-in и Lead-out : Нет
Заполнение пропущенных сэмплов тишиной : Да
Удаление блоков с тишиной в начале и конце : Нет
При вычислениях CRC использовались нулевые сэмплы : Да
Интерфейс : Встроенный Win32-интерфейс для Win NT/2000
Выходной формат : Пользовательский кодировщик
Выбранный битрейт : 768 kBit/s
Качество : Высокий
Добавление ID3-тэга : Нет
Утилита сжатия : D:\Program Files\Exact Audio Copy\FLAC\FLAC.EXE
Дополнительные параметры : -6 -V -T "ARTIST=%a" -T "TITLE=%t" -T "ALBUM=%g" -T "DATE=%y" -T "TRACKNUMBER=%n" -T "GENRE=%m" -T "COMMENT=%e" %s -o %d
TOC извлечённого CD
Трек | Старт | Длительность | Начальный сектор | Конечный сектор
---------------------------------------------------------------------
1 | 0:00.00 | 14:49.16 | 0 | 66690
2 | 14:49.16 | 10:48.22 | 66691 | 115312
3 | 25:37.38 | 16:34.02 | 115313 | 189864
4 | 42:11.40 | 16:08.10 | 189865 | 262474
5 | 58:19.50 | 5:10.54 | 262475 | 285778
Характеристики диапазона извлечения и сообщения об ошибках
Выбранный диапазон
Имя файла D:\EAC\Anthony Braxton, William Parker, Milford Graves - Beyond Quantum.wav
Пиковый уровень 97.7 %
Качество диапазона 99.9 %
CRC копии E9204A8D
Копирование... OK
Ошибок не произошло
AccurateRip: сводка
Трек 1 нет в базе данных
Трек 2 нет в базе данных
Трек 3 нет в базе данных
Трек 4 нет в базе данных
Трек 5 нет в базе данных
Ни одного трека нет в базе AccurateRip
Конец отчёта
Приватный:
Нет (DHT включён)
Размер:
405.00 Мб (424,669,335 байт) » файлов: 3
Участники:
0 раздают, 0 качают (0 участников всего)
Внешние участники:
3 раздают, 1 качают (4 участников всего) [ Обновить ]
No seeders - write a personal message to user M0p94ok. Нет сидеров - пишите личное сообщение пользователю M0p94ok.
04:53
51
Нет комментариев. Ваш будет первым!