Поиск

(Experimental) Zeena Parkins-La Légende De La Pluie - 1992, FLAC (image+.cue), lossless

Треклист:
Zeena Parkins-La Légende De La Pluie
Жанр: Experimental
Год выпуска диска: 1992
Производитель диска: Canada
Лейбл: Ambiances Magnétiques
Аудио кодек: FLAC
Тип рипа: image+.cue
Битрейт аудио: lossless
Продолжительность: 57:01
Трэклист:
1 Prologue (5:42)
2 L’Attente (8:49)
3 Le Brouillard (9:56)
4 L’Orage (9:47)
5 Les Pluies Acides (9:45)
6 Le Déluge (8:00)
7 Épilogue (4:57)
Доп. информация: Harp [Electric], Piano, Accordion - Zeena Parkins
Lyrics By - Danielle P. Roger (tracks: 3, 7) , Geneviève Letarte (tracks: 1) , Joane Hétu (tracks: 2)
Music By - Danielle P. Roger (tracks: 1, 3) , Diane Labrosse (tracks: 6) , Joane Hétu (tracks: 2, 7) , Tenko (tracks: 4) , Zeena Parkins (tracks: 5)
Percussion, Electronic Drums, Voice - Danielle Palardy Roger
Piano, Voice - Diane Labrosse
Producer - Danielle Palardy Roger , Joane Hétu
Saxophone, Voice, Piano - Joane Hétu
Voice, Guitar [On Table] - Tenko
 
EAC log
Exact Audio Copy V0.99 prebeta 4 from 23. January 2008
Отчёт EAC об извлечении, выполненном 4. ноября 2008, 13:01
Zeena Parkins / - La Legende De La Pluie
Дисковод: _NEC DVD_RW ND-3520AW Adapter: 1 ID: 0
Режим чтения : Достоверность
Использование точного потока : Да
Отключение кэша аудио : Да
Использование указателей C2 : Нет
Коррекция смещения при чтении : 48
Способность читать области Lead-in и Lead-out : Нет
Заполнение пропущенных сэмплов тишиной : Да
Удаление блоков с тишиной в начале и конце : Нет
При вычислениях CRC использовались нулевые сэмплы : Да
Интерфейс : Установленный внешний ASPI-интерфейс
Выходной формат : Внутренние WAV-операции
Формат сэмплов : 44.100 Гц; 16 бит; стерео
TOC извлечённого CD
Трек | Старт | Длительность | Начальный сектор | Конечный сектор
---------------------------------------------------------------------
1 | 0:00.00 | 5:42.72 | 0 | 25721
2 | 5:42.72 | 8:49.12 | 25722 | 65408
3 | 14:32.09 | 9:56.49 | 65409 | 110157
4 | 24:28.58 | 9:47.71 | 110158 | 154253
5 | 34:16.54 | 9:45.38 | 154254 | 198166
6 | 44:02.17 | 8:00.72 | 198167 | 234238
7 | 52:03.14 | 4:57.74 | 234239 | 256587
Характеристики диапазона извлечения и сообщения об ошибках
Выбранный диапазон
Имя файла D:\закачки\Zeena Parkins.wav
Пиковый уровень 100.0 %
Качество диапазона 100.0 %
CRC теста 130B16A0
CRC копии 130B16A0
Копирование... OK
Ошибок не произошло
AccurateRip: сводка
Трек 1 нет в базе данных
Трек 2 нет в базе данных
Трек 3 нет в базе данных
Трек 4 нет в базе данных
Трек 5 нет в базе данных
Трек 6 нет в базе данных
Трек 7 нет в базе данных
Ни одного трека нет в базе AccurateRip
Конец отчёта
Приватный:
Нет (DHT включён)
Размер:
363.49 Мб (381,148,612 байт) » файлов: 4
Участники:
0 раздают, 0 качают (0 участников всего)
Внешние участники:
1 раздают, 0 качают (1 участников всего) [ Обновить ]
No seeders - write a personal message to user M0p94ok. Нет сидеров - пишите личное сообщение пользователю M0p94ok.
04:54
64
Нет комментариев. Ваш будет первым!