Поиск

(avantgarde, free improvisation, free-jazz) John Butcher & Paal Nilssen-Love - Concentric - 2006, FLAC (image+.cue), lossless

(avantgarde, free improvisation, free-jazz) John Butcher & Paal Nilssen-Love - Concentric - 2006, FLAC (image+.cue), lossless
Треклист:
John Butcher & Paal Nilssen-Love - Concentric
Жанр: avantgarde, free improvisation
Год выпуска диска: 2006
Производитель диска: Portugal (CleanFeed Records)
Аудио кодек: FLAC
Тип рипа: image+.cue
Битрейт аудио: lossless
Продолжительность: 47.29
Трэклист:
1. Pipestone
2. Mono Lake
3. Point Lobos
4. The Stob
Доп. информация: John Butcher - tenor & soprano saxophones
Paal Nilssen-Love - drums and percussion
Бутчер - совершенно нечеловеческий саксофонист. Он умудряется стоять особняком на самых передовых фронтах современного авангарда, на несколько шагов опережая по технике игры и смелости экспериментов даже таких передовых новаторов, как Эван Паркер и Мэтс Густафссон. Бутчер, как в свое время Зорн, выработал свой, совершенно уникальный и кранее сложноорганизованный по структуре музыкальный язык, который, скорее, берет начало в произведениях композиторов вроде Ксенакиса, таким образом подойдя к джазовому авангарду совсем с другой стороны.
Шокирующее звуковое полотно, порождающее при соприкосновении с человеческим слухом просто фантастические явления - как если бы на нимбах разрядом, молнией, помехой проходило нечто вроде северного сияния..
Turn On, Tune In, Drop Out
 
eac log
Exact Audio Copy V0.99 prebeta 4 from 23. January 2008
Отчёт EAC об извлечении, выполненном 6. ноября 2008, 3:27
John Butcher Paal Nilssen-Love / CONCENTRIC
Дисковод: Optiarc DVD RW AD-7170A Adapter: 0 ID: 1
Режим чтения : Достоверность
Использование точного потока : Да
Отключение кэша аудио : Да
Использование указателей C2 : Нет
Коррекция смещения при чтении : 48
Способность читать области Lead-in и Lead-out : Нет
Заполнение пропущенных сэмплов тишиной : Да
Удаление блоков с тишиной в начале и конце : Нет
При вычислениях CRC использовались нулевые сэмплы : Да
Интерфейс : Встроенный Win32-интерфейс для Win NT/2000
Выходной формат : Пользовательский кодировщик
Выбранный битрейт : 768 kBit/s
Качество : Высокий
Добавление ID3-тэга : Нет
Утилита сжатия : D:\Program Files\Exact Audio Copy\FLAC\FLAC.EXE
Дополнительные параметры : -6 -V -T "ARTIST=%a" -T "TITLE=%t" -T "ALBUM=%g" -T "DATE=%y" -T "TRACKNUMBER=%n" -T "GENRE=%m" -T "COMMENT=%e" %s -o %d
TOC извлечённого CD
Трек | Старт | Длительность | Начальный сектор | Конечный сектор
---------------------------------------------------------------------
1 | 0:00.00 | 9:18.36 | 0 | 41885
2 | 9:18.36 | 12:47.16 | 41886 | 99426
3 | 22:05.52 | 7:25.32 | 99427 | 132833
4 | 29:31.09 | 17:57.56 | 132834 | 213664
Характеристики диапазона извлечения и сообщения об ошибках
Выбранный диапазон
Имя файла D:\EAC\John Butcher Paal Nilssen-Love - John Butcher Paal Nilssenlove CONCENTRIC.wav
Пиковый уровень 96.6 %
Качество диапазона 100.0 %
CRC копии 5D59526A
Копирование... OK
Ошибок не произошло
AccurateRip: сводка
Трек 1 нет в базе данных
Трек 2 нет в базе данных
Трек 3 нет в базе данных
Трек 4 нет в базе данных
Ни одного трека нет в базе AccurateRip
Конец отчёта
Приватный:
Нет (DHT включён)
Размер:
301.25 Мб (315,879,799 байт) » файлов: 3
Участники:
0 раздают, 0 качают (0 участников всего)
Внешние участники:
5 раздают, 1 качают (6 участников всего) [ Обновить ]
No seeders - write a personal message to user M0p94ok. Нет сидеров - пишите личное сообщение пользователю M0p94ok.
04:55
54
Нет комментариев. Ваш будет первым!