Поиск

(Avant-Garde) Tambastics - Tambastics - 1992, FLAC (image+.cue), lossless

(Avant-Garde) Tambastics - Tambastics - 1992, FLAC (image+.cue), lossless
Треклист:
Tambastics - Tambastics
Жанр: Avant-Garde
Год выпуска диска: 1992
Производитель диска: USA (Music & Arts)
Аудио кодек: FLAC
Тип рипа: image+.cue
Битрейт аудио: lossless
Продолжительность: 1:07:52
Denman Maroney hyperpiano
Gerry Hemingway percussion
Mark Dresser acoustic bass
Robert Dick flutes
1. Yawning Shoes
2. Chthonia
3. Floation
4. Force
5. Tambrage Rose
6. Woody Vector
7. Digestif
8. Not Having 2

 
EAC Report
Exact Audio Copy V0.99 prebeta 4 from 23. January 2008
EAC extraction logfile from 28. October 2008, 22:40
Tambastics / Tambastics
Used drive : MATSHITADVD-RAM UJ-840S Adapter: 1 ID: 0
Read mode : Secure
Utilize accurate stream : Yes
Defeat audio cache : Yes
Make use of C2 pointers : No
Read offset correction : 102
Overread into Lead-In and Lead-Out : No
Fill up missing offset samples with silence : Yes
Delete leading and trailing silent blocks : No
Null samples used in CRC calculations : Yes
Used interface : Installed external ASPI interface
Used output format : User Defined Encoder
Selected bitrate : 1024 kBit/s
Quality : High
Add ID3 tag : No
Command line compressor : C:\Program Files\Exact Audio Copy\FLAC\FLAC.EXE
Additional command line options : -6 -V -T "ARTIST=%a" -T "TITLE=%t" -T "ALBUM=%g" -T "DATE=%y" -T "TRACKNUMBER=%n" -T "GENRE=%m" -T "COMMENT=%e" %s -o %d
TOC of the extracted CD
Track | Start | Length | Start sector | End sector
---------------------------------------------------------
1 | 0:00.00 | 9:55.07 | 0 | 44631
2 | 9:55.07 | 13:40.63 | 44632 | 106194
3 | 23:35.70 | 4:08.72 | 106195 | 124866
4 | 27:44.67 | 8:23.63 | 124867 | 162654
5 | 36:08.55 | 15:47.37 | 162655 | 233716
6 | 51:56.17 | 4:27.03 | 233717 | 253744
7 | 56:23.20 | 1:22.37 | 253745 | 259931
8 | 57:45.57 | 10:06.48 | 259932 | 305429
Range status and errors
Selected range
Filename C:\z\Tambastics - Tambastics.wav
Peak level 100.0 %
Range quality 100.0 %
Copy CRC C258DE73
Copy OK
No errors occurred
AccurateRip summary
Track 1 not present in database
Track 2 not present in database
Track 3 not present in database
Track 4 not present in database
Track 5 not present in database
Track 6 not present in database
Track 7 not present in database
Track 8 not present in database
None of the tracks are present in the AccurateRip database
End of status report
Приватный:
Нет (DHT включён)
Размер:
250.75 Мб (262,926,019 байт) » файлов: 5
Участники:
0 раздают, 0 качают (0 участников всего)
Внешние участники:
1 раздают, 0 качают (1 участников всего) [ Обновить ]
No seeders - write a personal message to user M0p94ok. Нет сидеров - пишите личное сообщение пользователю M0p94ok.
04:55
56
Нет комментариев. Ваш будет первым!