Поиск

(Free Improvisation) John Butcher with Derek Bailey and Rhodri Davies - Vortices & Angels {Emanem} - 2001, FLAC (tracks+.cue), lossless

(Free Improvisation) John Butcher with Derek Bailey and Rhodri Davies - Vortices & Angels {Emanem} - 2001, FLAC (tracks+.cue), lossless
Треклист:
John Butcher with Derek Bailey and Rhodri Davies
Vortices & Angels
Жанр: Free Improvisation
Год выпуска диска: 2001
Производитель диска: England
Аудио кодек: FLAC
Тип рипа: tracks+.cue
Битрейт аудио: lossless
Продолжительность: 63:27
JOHN BUTCHER - soprano & tenor saxophones
DEREK BAILEY - amplified guitar (on 1 - 2)
RHODRI DAVIES - harp (on 3 - 5)
1 - LOW VORTEX - 27:46
2 - HIGH VORTEX - 10:04
3 - RHAGYMADRODD - 9:56
4 - PREGETH - 11:04
5 - DIWEDDGLO - 3:35
Digital concert recordings in London:
1 - 2 at The Vortex by Martin Davidson - 2000 March 23
3 - 5 at St Michael and All Angels Church by Tim Fletcher - 2000 May 24
Total time 63:27
2001
EMANEM 4049
 
Review by Nils Jacobson, allaboutjazz.com
Vortices & Angels offers two separate London duos featuring saxophonist John Butcher, and the title of this disc could not be more apt for the music contained within. The "Vortices" part (two pieces; 38 minutes) documents Butcher's performance with iconic free improv guitarist Derek Bailey at the Vortex, a jazz club in north London. This pair last performed as a duo a decade ago, so this recording offers a fresh update on their sound. Bailey dominates the beginning of "Low Vortex"; his open, adventurous sound keeps tugging Butcher forward. The guitarist goes electric and makes use of volume and feedback as supplements to his usual arsenal of scratching noises, rampant harmonics, and angular clusters. But Butcher is never far behind, and at times one can often hear the two battling for the pole position. During moments of peak intensity, Butcher pulls out all the stops and howls with the lushest collection of overtones one might imagine. Fortunately, these maelstroms are scattered among periods of more introspective activity. Butcher appears equally comfortable in settings that require gentle whispered breathing or bird-like cooing, and Bailey eventually calms down enough for some very interesting exchanges. With all the color and dynamics at their disposal, these two players interact in distinctively individual ways. The record is particularly revealing, given the personality differences between the players; their interaction reflects both strategic and tactical biases, though they're usually on the same team.
On to "Angels." Harpist Rhodri Davies and Butcher mark their first duo meeting in a fabulously lush setting at St. Michael and All Angels Church in London. Having experienced performances like this, I can affirm the church is a far better place than a club for this sort of thing. If Butcher's approach to the saxophone is a bit idiosyncratic, then Davies' approach to the harp is downright revolutionary. He prefers attack to decay; he prefers arco to pizzicato; and he prefers overtones to fundamentals. Nevertheless, the harp remains very quiet throughout. Davies' buzz-and-tinkle approach highlights Butcher's talents on the low end of the dynamic spectrum and the high end of the tonal spectrum. He happily constructs higher-order units from simple building blocks. Davies sticks with him, handing off more than a few blocks of his own. (Picture the two, instruments in hand, with bright shiny haloes above their heads, and you'll get the general idea.) The "Angels" of this record do a lot of listening, and their playing reflects deliberate choice and instrospective reaction. Each note acquires its own individual character when spaced out like this, though forward motion rarely suffers as a consequence.
Nils Jacobson, allaboutjazz.com
 
EAC extraction logfile from 18. October 2008, 15:39
Exact Audio Copy V0.99 prebeta 4 from 23. January 2008
EAC extraction logfile from 18. October 2008, 15:39
John Butcher / Vortices & Angels
Used drive : PLEXTOR DVDR PX-760A Adapter: 0 ID: 0
Read mode : Secure
Utilize accurate stream : Yes
Defeat audio cache : Yes
Make use of C2 pointers : No
Read offset correction : 30
Overread into Lead-In and Lead-Out : Yes
Fill up missing offset samples with silence : Yes
Delete leading and trailing silent blocks : No
Null samples used in CRC calculations : Yes
Used interface : Native Win32 interface for Win NT & 2000
Gap handling : Appended to previous track
Used output format : User Defined Encoder
Selected bitrate : 128 kBit/s
Quality : High
Add ID3 tag : No
Command line compressor : C:\Program Files\FLAC\flac.exe
Additional command line options : -8 -V -T "ARTIST=%a" -T "TITLE=%t" -T "ALBUM=%g" -T "DATE=%y" -T "TRACKNUMBER=%n" -T "GENRE=%m" -T "COMMENT=EAC FLAC -8" %s
TOC of the extracted CD
Track | Start | Length | Start sector | End sector
---------------------------------------------------------
1 | 0:00.00 | 27:54.34 | 0 | 125583
2 | 27:54.34 | 10:20.32 | 125584 | 172115
3 | 38:14.66 | 10:04.52 | 172116 | 217467
4 | 48:19.43 | 11:12.58 | 217468 | 267925
5 | 59:32.26 | 3:55.05 | 267926 | 285555
Track 1
Filename H:\John Butcher - Vortices & Angels (2001) [FLAC]\01 - Low Vortex.wav
Pre-gap length 0:00:02.00
Peak level 100.0 %
Track quality 100.0 %
Test CRC 515C9303
Copy CRC 515C9303
Track not present in AccurateRip database
Copy OK
Track 2
Filename H:\John Butcher - Vortices & Angels (2001) [FLAC]\02 - High Vortex.wav
Pre-gap length 0:00:08.00
Peak level 96.0 %
Track quality 100.0 %
Test CRC 54C25E8C
Copy CRC 54C25E8C
Track not present in AccurateRip database
Copy OK
Track 3
Filename H:\John Butcher - Vortices & Angels (2001) [FLAC]\03 - Rhagymadrodd.wav
Pre-gap length 0:00:16.00
Peak level 100.0 %
Track quality 99.9 %
Test CRC B6628663
Copy CRC B6628663
Track not present in AccurateRip database
Copy OK
Track 4
Filename H:\John Butcher - Vortices & Angels (2001) [FLAC]\04 - Pregeth.wav
Pre-gap length 0:00:08.00
Peak level 100.0 %
Track quality 99.9 %
Test CRC 210E5CFC
Copy CRC 210E5CFC
Track not present in AccurateRip database
Copy OK
Track 5
Filename H:\John Butcher - Vortices & Angels (2001) [FLAC]\05 - Diweddglo.wav
Pre-gap length 0:00:08.00
Peak level 39.2 %
Track quality 100.0 %
Test CRC 5728FD51
Copy CRC 5728FD51
Track not present in AccurateRip database
Copy OK
None of the tracks are present in the AccurateRip database
No errors occurred
End of status report
Собственный рип с оригинального диска.
В комплекте полный набор сканов PNG/300dpi.
Приватный:
Нет (DHT включён)
Размер:
304.64 Мб (319,442,751 байт) » файлов: 15
Участники:
0 раздают, 1 качают (1 участников всего)
Внешние участники:
5 раздают, 1 качают (6 участников всего) [ Обновить ]
Скорость:
2.09 Мб/c 0/c
No seeders - write a personal message to user M0p94ok. Нет сидеров - пишите личное сообщение пользователю M0p94ok.
04:56
65
Нет комментариев. Ваш будет первым!