Поиск

(Experimental, Avant-Garde) The Stone - Issue One (Zorn/Douglas/Patton/Burger/Laswell/Perowsky) copy #311 - 2006, APE (image+.cue), lossless

Треклист:
The Stone - Issue One (Zorn/Douglas/Patton/Burger/Laswell/Perowsky) copy 311
Жанр: Experimental, Avant-Garde
Год выпуска диска: 2006
Производитель диска: USA
Лейбл: Tzadik
Аудио кодек: APE
Тип рипа: image+.cue
Битрейт аудио: lossless
Продолжительность: 48 min
Трэклист:
Issue One
1. Introduction
2. Interlude 1
3. Part One
4. Interlude 2
5. Part Two
6. Interlude 3
7. Postlude
8. Coda
Доп. информация: Рип сделан с оригинального CD TZ0002
Музыканты:
John Zorn - sax
Dave Douglas - trumpet
Mike Patton - vocals
Rob Burger - organ, electric piano
Bill Laswell - bass
Ben Perowsky - drums
Что такое The Stone - The Stone is a not-for-profit performance space dedicated to the EXPERIMENTAL and AVANT-GARDE. 1000 копий из всего издания были специально пронумерованы и подписаны Зорном лично... Мне достался #311... Получилось даже сделать копии обложек... Про музыку говорить не буду - и так все ясно...
 
EAC Log
Exact Audio Copy V0.99 prebeta 4 from 23. January 2008
EAC extraction logfile from 6. November 2008, 17:57
The Stone / Issue One
Used drive : TSSTcorpCD/DVDW SH-W162C Adapter: 0 ID: 0
Read mode : Secure
Utilize accurate stream : Yes
Defeat audio cache : Yes
Make use of C2 pointers : No
Read offset correction : 6
Overread into Lead-In and Lead-Out : No
Fill up missing offset samples with silence : Yes
Delete leading and trailing silent blocks : No
Null samples used in CRC calculations : Yes
Used interface : Installed external ASPI interface
Used output format : Internal WAV Routines
Sample format : 44.100 Hz; 16 Bit; Stereo
Use compression offset : 0
TOC of the extracted CD
Track | Start | Length | Start sector | End sector
---------------------------------------------------------
1 | 0:00.00 | 4:24.12 | 0 | 19811
2 | 4:24.12 | 2:37.51 | 19812 | 31637
3 | 7:01.63 | 6:52.73 | 31638 | 62610
4 | 13:54.61 | 1:50.39 | 62611 | 70899
5 | 15:45.25 | 16:31.17 | 70900 | 145241
6 | 32:16.42 | 1:38.53 | 145242 | 152644
7 | 33:55.20 | 4:25.54 | 152645 | 172573
8 | 38:20.74 | 9:29.43 | 172574 | 215291
Range status and errors
Selected range
Filename C:\The Stone\2006, Issue One\The Stone - Issue One.wav
Peak level 96.6 %
Range quality 100.0 %
Copy CRC F0EBBD58
Copy OK
No errors occurred
End of status report
Мои раздачи
Приватный:
Нет (DHT включён)
Размер:
258.68 Мб (271,250,183 байт) » файлов: 6
Участники:
0 раздают, 0 качают (0 участников всего)
Внешние участники:
1 раздают, 0 качают (1 участников всего) [ Обновить ]
No seeders - write a personal message to user M0p94ok. Нет сидеров - пишите личное сообщение пользователю M0p94ok.
04:57
55
Нет комментариев. Ваш будет первым!