Поиск

(Avant-Garde) World Saxophone Quartet - Requim For Julius - 2000 (image+.cue), lossless

(Avant-Garde) World Saxophone Quartet - Requim For Julius - 2000 (image+.cue), lossless
Треклист:
World Saxophone Quartet - Requiem For Julius
Жанр: Avant-Garde
Год выпуска диска: 2000
Производитель диска: Justin Time(пираты)
Тип рипа: image+.cue
Битрейт аудио: lossless
Продолжительность: 55:52
Трэклист:
1 Ebony/ DeJohnette 7:45
2 Free and Independent Thought / Bluiett 3:01
3 Requiem for Julius/ Murray 6:46
5 Le Sport Suite/ Lake 7:50
6 Hurricane Floyd/ Murray 10:46
7 Potato Vamp/ Lake 3:42
8 Tone Poem/ Lake 5:54
9 Blues/ Bluiett, Lake, Murray, Purcell 4:11
Hamiet Bluiett Sax (Baritone), Producer
Oliver Lake Sax (Alto)
David Murray Sax (Tenor)
John Purcell Sax (Soprano), Producer, Sound Consultant

Доп. информация: Оригинал из собрания Дмитрия М.(Одесса)
 
Отчёт EAC об извлечении
Exact Audio Copy V0.99 prebeta 3 from 28. July 2007
Отчёт EAC об извлечении, выполненном 4. ноября 2008, 20:30
World Saxophone Quartet / Requim For Julius
Дисковод: Optiarc DVD RW AD-7203A Adapter: 0 ID: 1
Режим чтения : Достоверность
Использование точного потока : Да
Отключение кэша аудио : Да
Использование указателей C2 : Нет
Коррекция смещения при чтении : 48
Способность читать области Lead-in и Lead-out : Нет
Заполнение пропущенных сэмплов тишиной : Да
Удаление блоков с тишиной в начале и конце : Нет
При вычислениях CRC использовались нулевые сэмплы : Да
Интерфейс : Установленный внешний ASPI-интерфейс
Выходной формат : Monkey's Audio Lossless Encoder v3.99 DLL
Формат сэмплов : Normal Lossless Compression
TOC извлечённого CD
Трек | Старт | Длительность | Начальный сектор | Конечный сектор
---------------------------------------------------------------------
1 | 0:00.00 | 7:42.22 | 0 | 34671
2 | 7:42.22 | 2:58.24 | 34672 | 48045
3 | 10:40.46 | 5:54.58 | 48046 | 74653
4 | 16:35.29 | 6:44.04 | 74654 | 104957
5 | 23:19.33 | 7:50.27 | 104958 | 140234
6 | 31:09.60 | 10:43.18 | 140235 | 188477
7 | 41:53.03 | 3:40.33 | 188478 | 205010
8 | 45:33.36 | 5:52.38 | 205011 | 231448
9 | 51:25.74 | 4:11.63 | 231449 | 250336
Характеристики диапазона извлечения и сообщения об ошибках
Выбранный диапазон
Имя файла C:\Documents and Settings\1\Рабочий стол\World Saxophone Quartet - Requim For Julius.ape
Пиковый уровень 100.0 %
Качество диапазона 100.0 %
CRC теста 6267039B
CRC копии 6267039B
Копирование... OK
Ошибок не произошло
AccurateRip: сводка
Трек 1 нет в базе данных
Трек 2 нет в базе данных
Трек 3 нет в базе данных
Трек 4 нет в базе данных
Трек 5 нет в базе данных
Трек 6 нет в базе данных
Трек 7 нет в базе данных
Трек 8 нет в базе данных
Трек 9 нет в базе данных
Ни одного трека нет в базе AccurateRip
Конец отчёта
Приватный:
Нет (DHT включён)
Размер:
315.03 Мб (330,336,724 байт) » файлов: 9
Участники:
0 раздают, 0 качают (0 участников всего)
Внешние участники:
5 раздают, 1 качают (6 участников всего) [ Обновить ]
No seeders - write a personal message to user M0p94ok. Нет сидеров - пишите личное сообщение пользователю M0p94ok.
04:57
58
Нет комментариев. Ваш будет первым!