Вы используете незарегистрированную версию компонента "Вкладки"!

Поиск

(Modern Jazz) Mister Hyde - Back To The Beat - 2003, FLAC (image+.cue), lossless

Треклист:
Mister Hyde / Back To The Beat
Жанр: Modern Jazz
Страна-производитель диска: France
Год издания диска: 2003
Издатель (лейбл): Black & Blue
Номер по каталогу: BB 676.2
Страна: France
Аудиокодек: FLAC (*.flac)
Тип рипа: image+.cue
Битрейт аудио: lossless
Продолжительность: 47:10
Источник (релизер): CD
Наличие сканов в содержимом раздачи: да
Треклист:
1. Back to the Beat
2. Docteur Jekyll (The Return)
3. B3 de Gibraltar
4. Sens Interdit
5. Boutre du Sultan
6. Petit À Petit
7. Baroud
8. Flûte Instinct
 
Лог создания рипа
Exact Audio Copy V1.0 beta 2 from 29. April 2011
EAC extraction logfile from 7. July 2011, 14:33
Mister Hyde / Back To The Beat
Used drive : Optiarc DVD RW AD-7240S Adapter: 2 ID: 0
Read mode : Secure
Utilize accurate stream : Yes
Defeat audio cache : Yes
Make use of C2 pointers : No
Read offset correction : 48
Overread into Lead-In and Lead-Out : No
Fill up missing offset samples with silence : Yes
Delete leading and trailing silent blocks : No
Null samples used in CRC calculations : Yes
Used interface : Native Win32 interface for Win NT & 2000
Used output format : User Defined Encoder
Selected bitrate : 768 kBit/s
Quality : High
Add ID3 tag : No
Command line compressor : C:\Program Files\Exact Audio Copy\FLAC\FLAC.EXE
Additional command line options : -6 -V -T "ARTIST=%artist%" -T "TITLE=%title%" -T "ALBUM=%albumtitle%" -T "DATE=%year%" -T "TRACKNUMBER=%tracknr%" -T "GENRE=%genre%" -T "COMMENT=%comment%" -T "BAND=%albuminterpret%" -T "COMPOSER=%composer%" %haslyrics%--ta
TOC of the extracted CD
Track | Start | Length | Start sector | End sector
---------------------------------------------------------
1 | 0:00.00 | 5:30.57 | 0 | 24806
2 | 5:30.57 | 6:22.25 | 24807 | 53481
3 | 11:53.07 | 8:03.03 | 53482 | 89709
4 | 19:56.10 | 6:31.40 | 89710 | 119074
5 | 26:27.50 | 6:11.05 | 119075 | 146904
6 | 32:38.55 | 5:14.00 | 146905 | 170454
7 | 37:52.55 | 5:15.47 | 170455 | 194126
8 | 43:08.27 | 4:01.13 | 194127 | 212214
Range status and errors
Selected range
Filename C:\Documents and Settings\User\Мои документы\Mister Hyde - Back To The Beat (2003)\Mister Hyde - Back To The Beat.wav
Peak level 100.0 %
Extraction speed 3.7 X
Range quality 99.9 %
Test CRC A381BC50
Copy CRC A381BC50
Copy OK
No errors occurred
AccurateRip summary
Track 1 not present in database
Track 2 not present in database
Track 3 not present in database
Track 4 not present in database
Track 5 not present in database
Track 6 not present in database
Track 7 not present in database
Track 8 not present in database
None of the tracks are present in the AccurateRip database
End of status report
 
Содержание индексной карты (.CUE)
REM GENRE Jazz
REM DATE 2003
REM DISCID 700B0D08
REM COMMENT "ExactAudioCopy v1.0b2"
PERFORMER "Mister Hyde"
TITLE "Back To The Beat"
FILE "Mister Hyde - Back To The Beat.flac" WAVE
TRACK 01 AUDIO
TITLE "Back to the Beat"
PERFORMER "Mister Hyde"
INDEX 01 00:00:00
TRACK 02 AUDIO
TITLE "Docteur Jekyll (The Return)"
PERFORMER "Mister Hyde"
INDEX 00 05:29:55
INDEX 01 05:30:57
TRACK 03 AUDIO
TITLE "B3 de Gibraltar"
PERFORMER "Mister Hyde"
INDEX 00 11:52:02
INDEX 01 11:53:07
TRACK 04 AUDIO
TITLE "Sens Interdit"
PERFORMER "Mister Hyde"
INDEX 00 19:53:52
INDEX 01 19:56:10
TRACK 05 AUDIO
TITLE "Boutre du Sultan"
PERFORMER "Mister Hyde"
INDEX 00 26:25:50
INDEX 01 26:27:50
TRACK 06 AUDIO
TITLE "Petit A Petit"
PERFORMER "Mister Hyde"
INDEX 00 32:37:20
INDEX 01 32:38:55
TRACK 07 AUDIO
TITLE "Baroud"
PERFORMER "Mister Hyde"
INDEX 00 37:51:27
INDEX 01 37:52:55
TRACK 08 AUDIO
TITLE "Flute Instinct "
PERFORMER "Mister Hyde"
INDEX 00 43:06:45
INDEX 01 43:08:27
 
Об альбоме (сборнике)
A shaggy-haired saxophonist, a maniac of a guitarist, an organist who looks remotely like the ideal son-in-law and a drummer who thinks Zen, these are the members of Mister Hyde. An unlikely combination, but durable against all the odds, despite their diverse activities. "Equatorial" rights are defended by Aly Keita from Mali, who plays the balaphon and Jean-Philippe Fanfant from the Caribbean, on drums. On "Baroud" they heat things up, creating a steamy exotic atmosphere... .
The instrumentation is original with its mixture of the flute, alto saxophone, Hammond organ and guitar, and makes Myster Hyde's sound distinctive compared to the "digital frenzy" so characteristic of many a so-called Jazz-Fusion group. Be that as it may, this group does not aim to arouse melancholy or revolutionary music; it simply wants to involve the listener in its driving musical energy... .
Back to the Beat!
 
Состав
Hervé Meschinet - alto & soprano sax, flute
Gilles Rene - guitar
Philippe Petit - hammond organ B3
Christophe Bras - drums (except #7)
guest on "Baroud":
Aly Keita - balafon
Jean-Philippe Fanfant - drums
По всем вопросам пишите личное сообщение пользователю M0p94ok.
14:23
219
Нет комментариев. Ваш будет первым!