Вы используете незарегистрированную версию компонента "Вкладки"!

Поиск

(Modern Jazz) Jirzi Stivin (Jiří Stivín) & Ali Haurand - Just the Two of Us - 2003, FLAC (tracks+.cue), lossless

(Modern Jazz) Jirzi Stivin (Jiří Stivín) & Ali Haurand - Just the Two of Us - 2003, FLAC (tracks+.cue), lossless
Треклист:
Jirzi Stivin (Jiří Stivín) & Ali Haurand - Just the Two of Us - 2003
Жанр: Modern Jazz
Страна исполнителя: Czech Republic, Germany
Дата записи: April 6, 2000 at Sonic Yard Studio, Dusseldorf
Год издания: 2003
Страна - производитель диска: Germany
Издатель (лейбл): Konnex Records
Номер по каталогу: KCD 5095
Тип: studio
Аудио кодек: FLAC (*.flac)
Тип рипа: (tracks + .cue)
Корректность рипа: EAC ripped, correct read offset, test and copy
Битрейт аудио: lossless
Наличие сканов в содержимом раздачи: full scans, png, 300 dpi
Продолжительность: 58:08
Источник (релизер): коллекция Л Рендера, мой рип
Трэклист:
1. Two Old Ships (Jiri Stivin)
2. Bazalicka (Jiri Stivin)
3. Toronto Experience (Ali Haurand)
4. Don Cherry (Joachim Kuhn)
5. Polka Dots And Moonbeams (Van Heussen)
6. Interplay (Bill Evans)
7. Dedications (Ali Haurand)
8. Crystall Bells (Charlie Mariano)
9. Children Song NO.6 (Chick Corea)
10. Brother Joe (Ali Haurand)
11. Up Hahn The Swing (David Friesen)
12. My Garden (Jiri Stivin)
13. Fuhrmann (Jiri Stivin)
14. Good Night (Jiri Stivin)
Состав:
Jiri Stivin - flutes, clarinet, altosax (Jazz and baroque music soloist from Prague in the Czech Republic)
Ali Haurand - acoustic bass (Germany, Leader of the European Jazz Ensemble)
 
Bert Noglik
They are two people who can rely on and trust one another. On one hand the human and on the other the musical side. This confidence is the base for their musical cooperation. There is no third person who could add to their relationship and there is no rhythm group in the background to support their music. One-to-one musical dialogues in real time. No aids from the bag of tricks given by studio technology, no virtual sounds from the computer world. Just The Two Of Us. To be able to play music together with such sensitivity, it is necessary to listen carefully to one another. Certainly they have the advantage of having known each other for years, of playing together in the European Jazz Ensemble and also in a trio with Rob van den Broeck. Yet in a duo, not only are there less ties and more freedom, but certainly also more risks. Performing adventurous tight-rope walks between the familiar and the unknown, including the unintentional, the two of them develop exciting, coherent musical dialogues. The accompanying and the leading roles are changing all the time and often cannot be determined. Both are responsible for everything: from the melodic sound and harmonious refinements to the rhythmic drive of their music.
Ali Haurand who grew up with a jazz tradition, has decades worth of experience in the art of free play and structuring the music of his ever first class bands and ensembles. He is very much associated with Jiri Stivin who has his spiritual home in different disciplines: He gained during a long process an open, non dogmatic and creative handling of his new found musical freedom. Others may come from the Berklee School of Music - Jiri Stivin comes from Bohemia, the "Conservatory of Europe". He plays baroque, jazz and free improvisational music with the same devotion. All these experiences can be sensed when Ali Haurand and Jiri Stivin get involved in a musical dialogue which may need a common topic, but no additional prior arrangement. When two musicians of this quality join forces, the sounds and the rhythm ebb and flow by themselves.
 
Содержание индексной карты (.CUE):
REM GENRE Jazz
REM DATE 2003
REM DISCID CC0DA30E
REM COMMENT "ExactAudioCopy v0.99pb5"
PERFORMER "Jiri Stivin & Ali Haurand"
TITLE "Just the Two of Us"
FILE "01 - Two Old Ships.wav" WAVE
TRACK 01 AUDIO
TITLE "Two Old Ships"
PERFORMER "Jiri Stivin & Ali Haurand"
INDEX 01 00:00:00
TRACK 02 AUDIO
TITLE "Bazalicka"
PERFORMER "Jiri Stivin & Ali Haurand"
INDEX 00 02:27:38
FILE "02 - Bazalicka.wav" WAVE
INDEX 01 00:00:00
TRACK 03 AUDIO
TITLE "Toronto Experience"
PERFORMER "Jiri Stivin & Ali Haurand"
INDEX 00 03:15:03
FILE "03 - Toronto Experience.wav" WAVE
INDEX 01 00:00:00
TRACK 04 AUDIO
TITLE "Don Cherry"
PERFORMER "Jiri Stivin & Ali Haurand"
INDEX 00 01:57:25
FILE "04 - Don Cherry.wav" WAVE
INDEX 01 00:00:00
TRACK 05 AUDIO
TITLE "Polka Dots and Moonbeams"
PERFORMER "Jiri Stivin & Ali Haurand"
INDEX 00 03:38:38
FILE "05 - Polka Dots and Moonbeams.wav" WAVE
INDEX 01 00:00:00
TRACK 06 AUDIO
TITLE "Interplay"
PERFORMER "Jiri Stivin & Ali Haurand"
INDEX 00 07:13:35
FILE "06 - Interplay.wav" WAVE
INDEX 01 00:00:00
TRACK 07 AUDIO
TITLE "Dedications"
PERFORMER "Jiri Stivin & Ali Haurand"
INDEX 00 04:55:06
FILE "07 - Dedications.wav" WAVE
INDEX 01 00:00:00
TRACK 08 AUDIO
TITLE "Crystall Bells"
PERFORMER "Jiri Stivin & Ali Haurand"
INDEX 00 05:29:08
FILE "08 - Crystall Bells.wav" WAVE
INDEX 01 00:00:00
TRACK 09 AUDIO
TITLE "Children Song No. 6"
PERFORMER "Jiri Stivin & Ali Haurand"
INDEX 00 04:21:10
FILE "09 - Children Song No. 6.wav" WAVE
INDEX 01 00:00:00
TRACK 10 AUDIO
TITLE "Brother Joe"
PERFORMER "Jiri Stivin & Ali Haurand"
INDEX 00 03:02:74
FILE "10 - Brother Joe.wav" WAVE
INDEX 01 00:00:00
TRACK 11 AUDIO
TITLE "Up Hahn the Swing"
PERFORMER "Jiri Stivin & Ali Haurand"
INDEX 00 04:09:57
FILE "11 - Up Hahn the Swing.wav" WAVE
INDEX 01 00:00:00
TRACK 12 AUDIO
TITLE "My Garden"
PERFORMER "Jiri Stivin & Ali Haurand"
INDEX 00 03:09:36
FILE "12 - My Garden.wav" WAVE
INDEX 01 00:00:00
TRACK 13 AUDIO
TITLE "Fuhrmann"
PERFORMER "Jiri Stivin & Ali Haurand"
INDEX 00 03:34:25
FILE "13 - Fuhrmann.wav" WAVE
INDEX 01 00:00:00
TRACK 14 AUDIO
TITLE "Good Night"
PERFORMER "Jiri Stivin & Ali Haurand"
INDEX 00 04:58:36
FILE "14 - Good Night.wav" WAVE
INDEX 01 00:00:00
 
Лог создания рипа
Exact Audio Copy V0.99 prebeta 5 from 4. May 2009
EAC extraction logfile from 10. June 2011, 16:29
Jiri Stivin & Ali Haurand / Just the Two of Us
Used drive : HL-DT-STDVD-RAM GH22NP20 Adapter: 0 ID: 0
Read mode : Secure
Utilize accurate stream : Yes
Defeat audio cache : Yes
Make use of C2 pointers : No
Read offset correction : 102
Overread into Lead-In and Lead-Out : No
Fill up missing offset samples with silence : Yes
Delete leading and trailing silent blocks : No
Null samples used in CRC calculations : Yes
Used interface : Native Win32 interface for Win NT & 2000
Gap handling : Appended to previous track
Used output format : User Defined Encoder
Selected bitrate : 1024 kBit/s
Quality : High
Add ID3 tag : No
Command line compressor : C:\Program Files\Exact Audio Copy\Flac\flac.exe
Additional command line options : -8 -V -T "ARTIST=%a" -T "TITLE=%t" -T "ALBUM=%g" -T "DATE=%y" -T "TRACKNUMBER=%n" -T "GENRE=%m" -T "COMMENT=EAC FLAC -8" %s
TOC of the extracted CD
Track | Start | Length | Start sector | End sector
---------------------------------------------------------
1 | 0:00.00 | 2:32.38 | 0 | 11437
2 | 2:32.38 | 3:20.03 | 11438 | 26440
3 | 5:52.41 | 2:02.25 | 26441 | 35615
4 | 7:54.66 | 3:43.38 | 35616 | 52378
5 | 11:38.29 | 7:18.35 | 52379 | 85263
6 | 18:56.64 | 5:00.06 | 85264 | 107769
7 | 23:56.70 | 5:34.08 | 107770 | 132827
8 | 29:31.03 | 4:26.10 | 132828 | 152787
9 | 33:57.13 | 3:07.74 | 152788 | 166886
10 | 37:05.12 | 4:14.57 | 166887 | 185993
11 | 41:19.69 | 3:14.36 | 185994 | 200579
12 | 44:34.30 | 3:39.25 | 200580 | 217029
13 | 48:13.55 | 5:03.36 | 217030 | 239790
14 | 53:17.16 | 4:54.00 | 239791 | 261840
Track 1
Filename D:\music\Musicgate's rips\Jiri Stivin & Ali Haurand - Just the Two of Us - 2003\01 - Two Old Ships.wav
Pre-gap length 0:00:02.00
Peak level 94.4 %
Track quality 100.0 %
Test CRC D6A47030
Copy CRC D6A47030
Track not present in AccurateRip database
Copy OK
Track 2
Filename D:\music\Musicgate's rips\Jiri Stivin & Ali Haurand - Just the Two of Us - 2003\02 - Bazalicka.wav
Pre-gap length 0:00:05.00
Peak level 94.4 %
Track quality 100.0 %
Test CRC 90080A7E
Copy CRC 90080A7E
Track not present in AccurateRip database
Copy OK
Track 3
Filename D:\music\Musicgate's rips\Jiri Stivin & Ali Haurand - Just the Two of Us - 2003\03 - Toronto Experience.wav
Pre-gap length 0:00:05.00
Peak level 94.4 %
Track quality 100.0 %
Test CRC 50F7F195
Copy CRC 50F7F195
Track not present in AccurateRip database
Copy OK
Track 4
Filename D:\music\Musicgate's rips\Jiri Stivin & Ali Haurand - Just the Two of Us - 2003\04 - Don Cherry.wav
Pre-gap length 0:00:05.00
Peak level 94.4 %
Track quality 99.9 %
Test CRC 19F00C36
Copy CRC 19F00C36
Track not present in AccurateRip database
Copy OK
Track 5
Filename D:\music\Musicgate's rips\Jiri Stivin & Ali Haurand - Just the Two of Us - 2003\05 - Polka Dots and Moonbeams.wav
Pre-gap length 0:00:05.00
Peak level 94.4 %
Track quality 100.0 %
Test CRC 85DE98B3
Copy CRC 85DE98B3
Track not present in AccurateRip database
Copy OK
Track 6
Filename D:\music\Musicgate's rips\Jiri Stivin & Ali Haurand - Just the Two of Us - 2003\06 - Interplay.wav
Pre-gap length 0:00:05.00
Peak level 94.4 %
Track quality 100.0 %
Test CRC E9EFE6EF
Copy CRC E9EFE6EF
Track not present in AccurateRip database
Copy OK
Track 7
Filename D:\music\Musicgate's rips\Jiri Stivin & Ali Haurand - Just the Two of Us - 2003\07 - Dedications.wav
Pre-gap length 0:00:05.00
Peak level 94.4 %
Track quality 100.0 %
Test CRC F9A73152
Copy CRC F9A73152
Track not present in AccurateRip database
Copy OK
Track 8
Filename D:\music\Musicgate's rips\Jiri Stivin & Ali Haurand - Just the Two of Us - 2003\08 - Crystall Bells.wav
Pre-gap length 0:00:05.00
Peak level 94.4 %
Track quality 100.0 %
Test CRC A04426D5
Copy CRC A04426D5
Track not present in AccurateRip database
Copy OK
Track 9
Filename D:\music\Musicgate's rips\Jiri Stivin & Ali Haurand - Just the Two of Us - 2003\09 - Children Song No. 6.wav
Pre-gap length 0:00:05.00
Peak level 94.4 %
Track quality 100.0 %
Test CRC 8F4B9EB6
Copy CRC 8F4B9EB6
Track not present in AccurateRip database
Copy OK
Track 10
Filename D:\music\Musicgate's rips\Jiri Stivin & Ali Haurand - Just the Two of Us - 2003\10 - Brother Joe.wav
Pre-gap length 0:00:05.00
Peak level 81.6 %
Track quality 100.0 %
Test CRC ABD13805
Copy CRC ABD13805
Track not present in AccurateRip database
Copy OK
Track 11
Filename D:\music\Musicgate's rips\Jiri Stivin & Ali Haurand - Just the Two of Us - 2003\11 - Up Hahn the Swing.wav
Pre-gap length 0:00:05.00
Peak level 94.4 %
Track quality 100.0 %
Test CRC B9E5BCA5
Copy CRC B9E5BCA5
Track not present in AccurateRip database
Copy OK
Track 12
Filename D:\music\Musicgate's rips\Jiri Stivin & Ali Haurand - Just the Two of Us - 2003\12 - My Garden.wav
Pre-gap length 0:00:05.00
Peak level 94.4 %
Track quality 100.0 %
Test CRC 55E89C42
Copy CRC 55E89C42
Track not present in AccurateRip database
Copy OK
Track 13
Filename D:\music\Musicgate's rips\Jiri Stivin & Ali Haurand - Just the Two of Us - 2003\13 - Fuhrmann.wav
Pre-gap length 0:00:05.00
Peak level 94.4 %
Track quality 99.9 %
Test CRC 887007B9
Copy CRC 887007B9
Track not present in AccurateRip database
Copy OK
Track 14
Filename D:\music\Musicgate's rips\Jiri Stivin & Ali Haurand - Just the Two of Us - 2003\14 - Good Night.wav
Pre-gap length 0:00:05.00
Peak level 94.4 %
Track quality 100.0 %
Test CRC 8B8186B0
Copy CRC 8B8186B0
Track not present in AccurateRip database
Copy OK
None of the tracks are present in the AccurateRip database
No errors occurred
End of status report
 
Лог проверки качества
Я не сидирую все свои раздачи подолгу, только новые (до 3х первых сидов)
Если нет сидов или раздача находится в архиве, просите в ПМ, чтобы я вернулся - за старыми раздачами не слежу
приветствуется конвертация моих раздач в мп3 и выкладывание в соответствующем разделе
По всем вопросам пишите личное сообщение пользователю M0p94ok.
14:21
154
Нет комментариев. Ваш будет первым!