Вы используете незарегистрированную версию компонента "Вкладки"!

Поиск

(Free Jazz) Peter Brotzmann, Dieter Manderscheid, Frank Samba - Danquah Circle - 2004, FLAC (image+.cue), lossless

(Free Jazz) Peter Brotzmann, Dieter Manderscheid, Frank Samba - Danquah Circle - 2004, FLAC (image+.cue), lossless
Треклист:
Peter Brotzmann, Dieter Manderscheid, Frank Samba / Danquah Circle
Жанр: Free Jazz
Страна-производитель диска: Germany
Год издания диска: 2004
Издатель (лейбл): Konnex
Номер по каталогу: KCD 5127
Страна: Germany
Аудиокодек: FLAC (*.flac)
Тип рипа: image+.cue
Битрейт аудио: lossless
Продолжительность: 53:30
Источник (релизер): CD
Наличие сканов в содержимом раздачи: да
Треклист:
01 - Waiting For The Sky To Fall
02 - Danquah Circle
03 - Fire In The Zipper
 
Лог создания рипа
Exact Audio Copy V1.0 beta 2 from 29. April 2011
EAC extraction logfile from 6. July 2011, 11:23
Peter Brotzmann / Danquah Circle
Used drive : Optiarc DVD RW AD-7240S Adapter: 2 ID: 0
Read mode : Secure
Utilize accurate stream : Yes
Defeat audio cache : Yes
Make use of C2 pointers : No
Read offset correction : 48
Overread into Lead-In and Lead-Out : No
Fill up missing offset samples with silence : Yes
Delete leading and trailing silent blocks : No
Null samples used in CRC calculations : Yes
Used interface : Native Win32 interface for Win NT & 2000
Used output format : User Defined Encoder
Selected bitrate : 768 kBit/s
Quality : High
Add ID3 tag : No
Command line compressor : C:\Program Files\Exact Audio Copy\FLAC\FLAC.EXE
Additional command line options : -6 -V -T "ARTIST=%artist%" -T "TITLE=%title%" -T "ALBUM=%albumtitle%" -T "DATE=%year%" -T "TRACKNUMBER=%tracknr%" -T "GENRE=%genre%" -T "COMMENT=%comment%" -T "BAND=%albuminterpret%" -T "COMPOSER=%composer%" %haslyrics%--ta
TOC of the extracted CD
Track | Start | Length | Start sector | End sector
---------------------------------------------------------
1 | 0:00.00 | 21:11.02 | 0 | 95326
2 | 21:11.02 | 12:33.63 | 95327 | 151864
3 | 33:44.65 | 19:45.35 | 151865 | 240774
Range status and errors
Selected range
Filename C:\Documents and Settings\User\Мои документы\Oles-Murray-Oles - Circles Live in Cracow\Brotzmann-Manderscheid-Samba - Danquah Circle\Peter Brotzmann - Danquah Circle.wav
Peak level 100.0 %
Extraction speed 3.8 X
Range quality 100.0 %
Test CRC EE5F7A33
Copy CRC EE5F7A33
Copy OK
No errors occurred
AccurateRip summary
Track 1 accurately ripped (confidence 1) [247748E2] (AR v1)
Track 2 accurately ripped (confidence 1) [8544AD35] (AR v1)
Track 3 cannot be verified as accurate (confidence 1) [8FCC5F70], AccurateRip returned [104C2D1C] (AR v2)
2 track(s) accurately ripped
1 track(s) could not be verified as accurate
Some tracks could not be verified as accurate
End of status report
 
Содержание индексной карты (.CUE)
REM GENRE Avantgarde
REM DATE 2002
REM DISCID 190C8A03
REM COMMENT "ExactAudioCopy v1.0b2"
PERFORMER "Peter Brotzmann"
TITLE "Danquah Circle"
FILE "Peter Brotzmann - Danquah Circle.flac" WAVE
TRACK 01 AUDIO
TITLE "Waiting For The Sky To Fall"
PERFORMER "Peter Brotzmann"
FLAGS DCP
INDEX 01 00:00:00
INDEX 02 08:46:23
INDEX 03 15:58:33
TRACK 02 AUDIO
TITLE "Danquah Circle"
PERFORMER "Peter Brotzmann"
FLAGS DCP
INDEX 01 21:11:02
INDEX 02 27:07:49
TRACK 03 AUDIO
TITLE "Fire In The Zipper"
PERFORMER "Peter Brotzmann"
FLAGS DCP
INDEX 01 33:44:65
INDEX 02 45:31:25
INDEX 03 48:11:39
 
Состав
Peter Brötzmann / A-Clarinet / Tarogato / Alto / Tenorsax
Dieter Manderscheid / Bass
Frank Samba / Drums
Any questions -> support@pro-jazz.com. По всем вопросам пишите -> support@pro-jazz.com
14:21
145
Нет комментариев. Ваш будет первым!