Вы используете незарегистрированную версию компонента "Вкладки"!

Поиск

(Post-Bop, Free Improvisation) Charly Antolini - Crash - 1997, FLAC (tracks+.cue), lossless

Треклист:
Charly Antolini / Crash
Жанр: Post-Bop, Free Improvisation
Год издания диска: 1997
Издатель (лейбл): Bell
Номер по каталогу: BLR 84 002
Страна: Switzerland, Zürich
Аудиокодек: FLAC (*.flac)
Тип рипа: tracks+.cue
Битрейт аудио: lossless
Продолжительность: 00:32:30
Источник (релизер): siontx
Наличие сканов в содержимом раздачи: нет
Треклист:
01 - Motodrum-Crash-Cabriolet-Carambolage
02 - Rotation
03 - Six Days
04 - Co-pilot
05 - Indiana police
 
Лог создания рипа
Exact Audio Copy V1.0 beta 2 from 29. April 2011
EAC extraction logfile from 27. June 2011, 23:12
Charly Antolini / Crash
Used drive : HL-DT-STDVDRAM GH22NS70 Adapter: 3 ID: 0
Read mode : Secure
Utilize accurate stream : Yes
Defeat audio cache : Yes
Make use of C2 pointers : No
Read offset correction : 667
Overread into Lead-In and Lead-Out : No
Fill up missing offset samples with silence : Yes
Delete leading and trailing silent blocks : No
Null samples used in CRC calculations : Yes
Used interface : Native Win32 interface for Win NT & 2000
Gap handling : Appended to previous track
Used output format : User Defined Encoder
Selected bitrate : 1024 kBit/s
Quality : High
Add ID3 tag : No
Command line compressor : C:\Program Files (x86)\Exact Audio Copy\FLAC\FLAC.EXE
Additional command line options : -8 -V -T "ARTIST=%artist%" -T "TITLE=%title%" -T "ALBUM=%albumtitle%" -T "DATE=%year%" -T "TRACKNUMBER=%tracknr%" -T "GENRE=%genre%" -T "PERFORMER=%albuminterpret%" -T "COMPOSER=%composer%" %haslyrics%--tag-from-file=LYRICS
TOC of the extracted CD
Track | Start | Length | Start sector | End sector
---------------------------------------------------------
1 | 0:00.00 | 16:16.00 | 0 | 73199
2 | 16:16.00 | 4:32.00 | 73200 | 93599
3 | 20:48.00 | 4:26.00 | 93600 | 113549
4 | 25:14.00 | 2:25.00 | 113550 | 124424
5 | 27:39.00 | 4:50.62 | 124425 | 146236
Track 1
Filename C:\Users\siontx\EAC Rips\01 - Motodrum-Crash-Cabriolet-Carambolage.wav
Pre-gap length 0:00:02.00
Peak level 100.0 %
Extraction speed 1.6 X
Track quality 100.0 %
Test CRC 995CC9B3
Copy CRC 995CC9B3
Accurately ripped (confidence 2) [7935272F] (AR v2)
Copy OK
Track 2
Filename C:\Users\siontx\EAC Rips\02 - Rotation.wav
Pre-gap length 0:00:03.20
Peak level 100.0 %
Extraction speed 1.7 X
Track quality 100.0 %
Test CRC BC216DA5
Copy CRC BC216DA5
Accurately ripped (confidence 2) [51222BFE] (AR v2)
Copy OK
Track 3
Filename C:\Users\siontx\EAC Rips\03 - Six Days.wav
Pre-gap length 0:00:02.73
Peak level 61.0 %
Extraction speed 1.8 X
Track quality 100.0 %
Test CRC EA383199
Copy CRC EA383199
Accurately ripped (confidence 2) [6A6297BC] (AR v2)
Copy OK
Track 4
Filename C:\Users\siontx\EAC Rips\04 - Co-pilot.wav
Pre-gap length 0:00:03.04
Peak level 100.0 %
Extraction speed 1.7 X
Track quality 100.0 %
Test CRC DE44ECC4
Copy CRC DE44ECC4
Accurately ripped (confidence 2) [5D9F35E1] (AR v2)
Copy OK
Track 5
Filename C:\Users\siontx\EAC Rips\05 - Indiana police.wav
Pre-gap length 0:00:02.40
Peak level 100.0 %
Extraction speed 1.8 X
Track quality 99.9 %
Test CRC 66E4B440
Copy CRC 66E4B440
Accurately ripped (confidence 2) [3D35F06C] (AR v2)
Copy OK
All tracks accurately ripped
No errors occurred
End of status report
==== Log checksum 2CCCCCCAA84BE80743F36AC3791AC88CF6CA933969FD6B9D2BE5573983F9852F ====
 
Содержание индексной карты (.CUE)
REM GENRE Jazz
REM DISCID 3D079D05
REM COMMENT "ExactAudioCopy v1.0b2"
PERFORMER "Charly Antolini"
TITLE "Crash"
FILE "01 - Motodrum-Crash-Cabriolet-Carambolage.wav" WAVE
TRACK 01 AUDIO
TITLE "Motodrum-Crash-Cabriolet-Carambolage"
PERFORMER "Charly Antolini"
INDEX 01 00:00:00
TRACK 02 AUDIO
TITLE "Rotation"
PERFORMER "Charly Antolini"
INDEX 00 16:12:60
FILE "02 - Rotation.wav" WAVE
INDEX 01 00:00:00
TRACK 03 AUDIO
TITLE "Six Days"
PERFORMER "Charly Antolini"
INDEX 00 04:29:20
FILE "03 - Six Days.wav" WAVE
INDEX 01 00:00:00
TRACK 04 AUDIO
TITLE "Co-pilot"
PERFORMER "Charly Antolini"
INDEX 00 04:22:72
FILE "04 - Co-pilot.wav" WAVE
INDEX 01 00:00:00
TRACK 05 AUDIO
TITLE "Indiana police"
PERFORMER "Charly Antolini"
INDEX 00 02:22:45
FILE "05 - Indiana police.wav" WAVE
INDEX 01 00:00:00
 
Об исполнителе (группе)
by Ron Wynn
A Swiss drummer who's played in traditional and swing bands with European, expatriate and visiting American players. He recorded in Switzerland with Bill Coleman in the the '50s, and played in the dixieland group The Tremble Kids in the late '50s, early '60s and early '70s. He also played for five years in the German big band of The Suddeutscher Rundfunk. He has recorded with Wolfgang Dauner, Eugen Cicero, Stuff Smith, and Baden Powell, been a bandleader and session music and played with Lionel Hampton and Benny Goodman in the '80s. He once belonged to Kurt Edelhagen's big band and toured the Soviet Union with them.
Any questions -> support@pro-jazz.com. По всем вопросам пишите -> support@pro-jazz.com
14:20
219
Нет комментариев. Ваш будет первым!