Вы используете незарегистрированную версию компонента "Вкладки"!

Поиск

(Modern Jazz, Free Improvisation, Jazz-Rock) [CD] Hunger Pangs (Marek Kadziela, Tomasz Dabrowski, Kasper Tom Christiansen) - Meet Meat - 2013, FLAC (tracks+.cue), lossless

(Modern Jazz, Free Improvisation, Jazz-Rock) [CD] Hunger Pangs (Marek Kadziela, Tomasz Dabrowski, Kasper Tom Christiansen) - Meet Meat - 2013, FLAC (tracks+.cue), lossless
Треклист:
Hunger Pangs / Meet Meat
Жанр: Modern Jazz, Free Improvisation, Jazz-Rock
Носитель: CD
Страна-производитель диска (релиза): Poland
Год издания: 2013
Издатель (лейбл): For Tune
Номер по каталогу: 0008 008
Аудиокодек: FLAC (*.flac)
Тип рипа: tracks+.cue
Битрейт аудио: lossless
Продолжительность: 56:00
Источник (релизер): я
Наличие сканов в содержимом раздачи: да
Треклист:
1. Second Left to Ever 7:20
2. Bee-Tone 9:35
3. Low Hp (Tomasz Dąbrowski) 4:09
4. Isbjørn 9:12
5. Egern 4:44
6. Tåge 5:17
7. Kiks 6:49
8. Iron Heart Doesn’t Chirp (K. T. Christiansen, T. Dąbrowski, M. Kądziela) 1:48
9. Bunker Hungs (Kasper Tom Christiansen) 7:06
All tunes composed by Marek Kądziela except otherwise indicated.
Recorded on the 2nd and 3rd of July, 2010 at Berlinaudio studios in Berlin (Germany), the 7th and 8th of May, 2011 and on the 29th of November, 2012 at Hellesøe studios in Odense (Denmark).
Marek Kądziela – Guitar
Tomasz Dąbrowski – Trumpet, MicroKORG, Balkan Horn
Kasper Tom Christiansen – Drums
 
Лог создания рипа
Exact Audio Copy V1.0 beta 3 from 29. August 2011
EAC extraction logfile from 1. December 2014, 11:29
Hunger Pangs / Meet Meat
Used drive : SlimtypeeNAU508 5 Adapter: 1 ID: 0
Read mode : Secure
Utilize accurate stream : Yes
Defeat audio cache : Yes
Make use of C2 pointers : No
Read offset correction : 6
Overread into Lead-In and Lead-Out : No
Fill up missing offset samples with silence : Yes
Delete leading and trailing silent blocks : No
Null samples used in CRC calculations : Yes
Used interface : Native Win32 interface for Win NT & 2000
Gap handling : Appended to previous track
Used output format : User Defined Encoder
Selected bitrate : 768 kBit/s
Quality : High
Add ID3 tag : No
Command line compressor : C:\Program Files (x86)\Exact Audio Copy\Flac\flac.exe
Additional command line options : -8 -V -T "ARTIST=%artist%" -T "TITLE=%title%" -T "ALBUM=%albumtitle%" -T "DATE=%year%" -T "TRACKNUMBER=%tracknr%" -T "TOTALTRACKS=%numtracks%" -T "GENRE=%genre%" -T "ALBUMARTIST=%albumartist%" -T "ALBUM ARTIST=%albumartist%" -T "COMMENT=EAC Secure Mode, Test & Copy, AccurateRip, FLAC -8" %source%
TOC of the extracted CD
Track | Start | Length | Start sector | End sector
---------------------------------------------------------
1 | 0:00.00 | 7:20.00 | 0 | 32999
2 | 7:20.00 | 9:35.00 | 33000 | 76124
3 | 16:55.00 | 4:09.00 | 76125 | 94799
4 | 21:04.00 | 9:12.00 | 94800 | 136199
5 | 30:16.00 | 4:44.00 | 136200 | 157499
6 | 35:00.00 | 5:17.00 | 157500 | 181274
7 | 40:17.00 | 6:49.00 | 181275 | 211949
8 | 47:06.00 | 1:48.00 | 211950 | 220049
9 | 48:54.00 | 7:06.00 | 220050 | 251999
Track 1
Filename C:\EAC rips\01 - Second Left to Ever.wav
Pre-gap length 0:00:02.00
Peak level 99.4 %
Extraction speed 2.3 X
Track quality 100.0 %
Test CRC 3412AB3C
Copy CRC 3412AB3C
Track not present in AccurateRip database
Copy OK
Track 2
Filename C:\EAC rips\02 - Bee-Tone.wav
Peak level 99.2 %
Extraction speed 2.6 X
Track quality 99.9 %
Test CRC F0A9AA74
Copy CRC F0A9AA74
Track not present in AccurateRip database
Copy OK
Track 3
Filename C:\EAC rips\03 - Low Hp.wav
Peak level 98.8 %
Extraction speed 2.4 X
Track quality 99.9 %
Test CRC 31D31D35
Copy CRC 31D31D35
Track not present in AccurateRip database
Copy OK
Track 4
Filename C:\EAC rips\04 - Isbjørn.wav
Peak level 99.0 %
Extraction speed 3.5 X
Track quality 100.0 %
Test CRC 5A3E982F
Copy CRC 5A3E982F
Track not present in AccurateRip database
Copy OK
Track 5
Filename C:\EAC rips\05 - Egern.wav
Peak level 99.1 %
Extraction speed 3.5 X
Track quality 100.0 %
Test CRC AE529FE9
Copy CRC AE529FE9
Track not present in AccurateRip database
Copy OK
Track 6
Filename C:\EAC rips\06 - Tåge.wav
Peak level 99.1 %
Extraction speed 3.7 X
Track quality 100.0 %
Test CRC 81568513
Copy CRC 81568513
Track not present in AccurateRip database
Copy OK
Track 7
Filename C:\EAC rips\07 - Kiks.wav
Peak level 98.9 %
Extraction speed 3.5 X
Track quality 99.9 %
Test CRC E3C4AAA0
Copy CRC E3C4AAA0
Track not present in AccurateRip database
Copy OK
Track 8
Filename C:\EAC rips\08 - Iron Heart Doesn't Chirp.wav
Peak level 99.0 %
Extraction speed 3.3 X
Track quality 100.0 %
Test CRC 55E96155
Copy CRC 55E96155
Track not present in AccurateRip database
Copy OK
Track 9
Filename C:\EAC rips\09 - Bunker Hungs.wav
Peak level 99.2 %
Extraction speed 4.3 X
Track quality 100.0 %
Test CRC C35C480A
Copy CRC C35C480A
Track not present in AccurateRip database
Copy OK
None of the tracks are present in the AccurateRip database
No errors occurred
End of status report
---- CUETools DB Plugin V2.1.4
[CTDB TOCID: 1.T2oBL1gxjdomZdRZ77dSS9HQE-] found
Submit result: 1.T2oBL1gxjdomZdRZ77dSS9HQE- has been confirmed
Track | CTDB Status
1 | (2/2) Accurately ripped
2 | (2/2) Accurately ripped
3 | (2/2) Accurately ripped
4 | (2/2) Accurately ripped
5 | (2/2) Accurately ripped
6 | (2/2) Accurately ripped
7 | (2/2) Accurately ripped
8 | (2/2) Accurately ripped
9 | (2/2) Accurately ripped
==== Log checksum 5572546F6BCBD299D8FA720B979D250A3B167BA612AABB617931612917571F7F ====
 
Содержание индексной карты (.CUE)
REM GENRE "For Tune 0008 008"
REM DATE 2013
REM DISCID 730D2009
REM COMMENT "ExactAudioCopy v1.0b3"
PERFORMER "Hunger Pangs"
TITLE "Meet Meat"
FILE "01 - Second Left to Ever.wav" WAVE
TRACK 01 AUDIO
TITLE "Second Left to Ever"
PERFORMER "Hunger Pangs"
ISRC PLH161300043
INDEX 01 00:00:00
FILE "02 - Bee-Tone.wav" WAVE
TRACK 02 AUDIO
TITLE "Bee-Tone"
PERFORMER "Hunger Pangs"
ISRC PLH161300044
INDEX 01 00:00:00
FILE "03 - Low Hp.wav" WAVE
TRACK 03 AUDIO
TITLE "Low Hp"
PERFORMER "Hunger Pangs"
ISRC PLH161300045
INDEX 01 00:00:00
FILE "04 - Isbjørn.wav" WAVE
TRACK 04 AUDIO
TITLE "Isbjørn"
PERFORMER "Hunger Pangs"
ISRC PLH161300046
INDEX 01 00:00:00
FILE "05 - Egern.wav" WAVE
TRACK 05 AUDIO
TITLE "Egern"
PERFORMER "Hunger Pangs"
ISRC PLH161300047
INDEX 01 00:00:00
FILE "06 - Tåge.wav" WAVE
TRACK 06 AUDIO
TITLE "Tåge"
PERFORMER "Hunger Pangs"
ISRC PLH161300048
INDEX 01 00:00:00
FILE "07 - Kiks.wav" WAVE
TRACK 07 AUDIO
TITLE "Kiks"
PERFORMER "Hunger Pangs"
ISRC PLH161300049
INDEX 01 00:00:00
FILE "08 - Iron Heart Doesn't Chirp.wav" WAVE
TRACK 08 AUDIO
TITLE "Iron Heart Doesn't Chirp"
PERFORMER "Hunger Pangs"
ISRC PLH161300050
INDEX 01 00:00:00
FILE "09 - Bunker Hungs.wav" WAVE
TRACK 09 AUDIO
TITLE "Bunker Hungs"
PERFORMER "Hunger Pangs"
ISRC PLH161300051
INDEX 01 00:00:00
По всем вопросам пишите личное сообщение пользователю M0p94ok.
10:16
237
Нет комментариев. Ваш будет первым!