Вы используете незарегистрированную версию компонента "Вкладки"!

Поиск

(Free Jazz, Noise Rock, Tzadik) [CD] John Zorn [Marc Ribot, Trevor Dunn, Tyshawn Sorey] - Valentine's Day - 2014, FLAC (tracks+.cue), lossless

Треклист:
John Zorn / Valentine's Day
Жанр: Free Jazz, Noise Rock, Tzadik
Носитель: CD
Страна-производитель диска (релиза): US
Год издания: 2014
Издатель (лейбл): Tzadik
Номер по каталогу: TZ 8323
Страна исполнителя (группы): US
Аудиокодек: FLAC (*.flac)
Тип рипа: tracks+.cue
Битрейт аудио: lossless
Продолжительность: 00:43:59
Источник (релизер): What.cd, aldenalderon
Наличие сканов в содержимом раздачи: да, front
Треклист:
01. Potions And Poisons (Enigma One) 03:05
02. Fireworks (Enigma Two) 03:38
03. Blind Owl And Buckwheats (Enigma Three) 04:30
04. Abramelin (Enigma Four) 03:19
05. Seven Secrets (Enigma Five) 02:53
06. Before I Saw The Spirit Of A Child (Enigma Six) 04:40
07. UX (Enigma Seven) 04:04
08. The Voynich Mandala (Enigma Eight) 04:33
09. Codebreaker (Enigma Nine) 04:32
10. Map (Enigma Ten) 03:41
11. Black Mirror (Enigma Eleven) 02:18
12. And The Clouds Drift By (Enigma Twelve) 02:48

Credits
Drums – Tyshawn Sorey
Electric Bass – Trevor Dunn
Electric Guitar – Marc Ribot
John Zorn's Enigmata trios – Valentine's Day
An exciting new world of instrumental rock featuring three generations of Downtown superstars—Marc Ribot (Ceramic Dog, Tom Waits, Elvis Costello), Trevor Dunn (Mr. Bungle, Melvins, Fantômas) and Tyshawn Sorey (Steve Coleman, Anthony Braxton, Vijay Iyer). Written in 2010, these 12 instrumental miniatures combine atonal lyricism with rock intensity—Schoenberg meets Beefheart’s Magic Band. Originally released as duos in 2011 on the now legendary Enigmata CD (one of the most vexing CDs in Zorn’s catalog) the music is made more visceral and dynamic in this special trio version with the addition of the powerful drums of Tyshawn Sorey. Insane, outrageous and exhilarating!
 
Logs
 
Лог создания рипа
X Lossless Decoder version 20141129 (148.1)
XLD extraction logfile from 2015-03-15 15:45:29 -0700
John Zorn / Valentine's Day
Used drive : OPTIARC DVD RW AD-5680H (revision 3AHB)
Media type : Pressed CD
Ripper mode : XLD Secure Ripper
Disable audio cache : OK for the drive with a cache less than 1375KiB
Make use of C2 pointers : NO
Read offset correction : 48
Max retry count : 20
Gap status : Analyzed, Appended (except HTOA)
TOC of the extracted CD
Track | Start | Length | Start sector | End sector
---------------------------------------------------------
1 | 00:00:00 | 03:04:54 | 0 | 13853
2 | 03:04:54 | 03:37:50 | 13854 | 30178
3 | 06:42:29 | 04:29:66 | 30179 | 50419
4 | 11:12:20 | 03:19:15 | 50420 | 65359
5 | 14:31:35 | 02:53:17 | 65360 | 78351
6 | 17:24:52 | 04:39:67 | 78352 | 99343
7 | 22:04:44 | 04:04:08 | 99344 | 117651
8 | 26:08:52 | 04:32:54 | 117652 | 138105
9 | 30:41:31 | 04:31:39 | 138106 | 158469
10 | 35:12:70 | 03:40:64 | 158470 | 175033
11 | 38:53:59 | 02:18:17 | 175034 | 185400
12 | 41:12:01 | 02:47:45 | 185401 | 197970
AccurateRip Summary (DiscID: 0013fdbf-00bbc21d-960a4f0c)
Track 01 : OK (v2, confidence 2/2)
Track 02 : OK (v2, confidence 2/2)
Track 03 : OK (v2, confidence 2/2)
Track 04 : OK (v2, confidence 2/2)
Track 05 : OK (v2, confidence 2/2)
Track 06 : OK (v2, confidence 2/2)
Track 07 : OK (v2, confidence 2/2)
Track 08 : OK (v2, confidence 2/2)
Track 09 : OK (v2, confidence 2/2)
Track 10 : OK (v2, confidence 2/2)
Track 11 : OK (v2, confidence 2/2)
Track 12 : OK (v2, confidence 2/2)
->All tracks accurately ripped.
All Tracks
Album gain : -4.40 dB
Peak : 1.000000
Statistics
Read error : 0
Jitter error (maybe fixed) : 0
Retry sector count : 0
Damaged sector count : 0
Track 01
Filename : /Users/alderon54/Desktop/John Zorn - Valentine's Day (2014) [FLAC]/01 Potions And Poisons.flac
Pre-gap length : 00:02:00
Track gain : -4.76 dB
Peak : 0.970276
CRC32 hash (test run) : 641006DC
CRC32 hash : 641006DC
CRC32 hash (skip zero) : FE5112F1
AccurateRip v1 signature : 60FC7404
AccurateRip v2 signature : C62FE217
->Accurately ripped (v2, confidence 2/2)
Statistics
Read error : 0
Jitter error (maybe fixed) : 0
Retry sector count : 0
Damaged sector count : 0
Track 02
Filename : /Users/alderon54/Desktop/John Zorn - Valentine's Day (2014) [FLAC]/02 Fireworks.flac
Track gain : -4.29 dB
Peak : 0.971924
CRC32 hash (test run) : AC876362
CRC32 hash : AC876362
CRC32 hash (skip zero) : B0621D5F
AccurateRip v1 signature : C90E1169
AccurateRip v2 signature : 4B82F07B
->Accurately ripped (v2, confidence 2/2)
Statistics
Read error : 0
Jitter error (maybe fixed) : 0
Retry sector count : 0
Damaged sector count : 0
Track 03
Filename : /Users/alderon54/Desktop/John Zorn - Valentine's Day (2014) [FLAC]/03 Blind Owl And Buckwheats.flac
Track gain : -4.89 dB
Peak : 0.992432
CRC32 hash (test run) : 6616DBAA
CRC32 hash : 6616DBAA
CRC32 hash (skip zero) : B77614C3
AccurateRip v1 signature : 4FC9D975
AccurateRip v2 signature : 1189278E
->Accurately ripped (v2, confidence 2/2)
Statistics
Read error : 0
Jitter error (maybe fixed) : 0
Retry sector count : 0
Damaged sector count : 0
Track 04
Filename : /Users/alderon54/Desktop/John Zorn - Valentine's Day (2014) [FLAC]/04 Abramelin.flac
Track gain : -4.51 dB
Peak : 0.976288
CRC32 hash (test run) : 5E749A5F
CRC32 hash : 5E749A5F
CRC32 hash (skip zero) : D0D07A99
AccurateRip v1 signature : 190D7260
AccurateRip v2 signature : 884C99C4
->Accurately ripped (v2, confidence 2/2)
Statistics
Read error : 0
Jitter error (maybe fixed) : 0
Retry sector count : 0
Damaged sector count : 0
Track 05
Filename : /Users/alderon54/Desktop/John Zorn - Valentine's Day (2014) [FLAC]/05 Seven Secrets.flac
Track gain : -4.12 dB
Peak : 1.000000
CRC32 hash (test run) : C88A0DF6
CRC32 hash : C88A0DF6
CRC32 hash (skip zero) : 588361A2
AccurateRip v1 signature : 061E684D
AccurateRip v2 signature : ECFE5400
->Accurately ripped (v2, confidence 2/2)
Statistics
Read error : 0
Jitter error (maybe fixed) : 0
Retry sector count : 0
Damaged sector count : 0
Track 06
Filename : /Users/alderon54/Desktop/John Zorn - Valentine's Day (2014) [FLAC]/06 Before I Saw The Spirit Of A Child.flac
Track gain : -1.66 dB
Peak : 0.968781
CRC32 hash (test run) : E7A5A908
CRC32 hash : E7A5A908
CRC32 hash (skip zero) : D8A569C5
AccurateRip v1 signature : A74BCF31
AccurateRip v2 signature : 4C6B8710
->Accurately ripped (v2, confidence 2/2)
Statistics
Read error : 0
Jitter error (maybe fixed) : 0
Retry sector count : 0
Damaged sector count : 0
Track 07
Filename : /Users/alderon54/Desktop/John Zorn - Valentine's Day (2014) [FLAC]/07 UX.flac
Track gain : -3.31 dB
Peak : 0.985260
CRC32 hash (test run) : 69FE6934
CRC32 hash : 69FE6934
CRC32 hash (skip zero) : 3DBF7528
AccurateRip v1 signature : 40447596
AccurateRip v2 signature : E01899C4
->Accurately ripped (v2, confidence 2/2)
Statistics
Read error : 0
Jitter error (maybe fixed) : 0
Retry sector count : 0
Damaged sector count : 0
Track 08
Filename : /Users/alderon54/Desktop/John Zorn - Valentine's Day (2014) [FLAC]/08 The Voynich.flac
Track gain : -3.35 dB
Peak : 0.971985
CRC32 hash (test run) : CE973C71
CRC32 hash : CE973C71
CRC32 hash (skip zero) : 1B878EBC
AccurateRip v1 signature : 294B89CF
AccurateRip v2 signature : 70F4A376
->Accurately ripped (v2, confidence 2/2)
Statistics
Read error : 0
Jitter error (maybe fixed) : 0
Retry sector count : 0
Damaged sector count : 0
Track 09
Filename : /Users/alderon54/Desktop/John Zorn - Valentine's Day (2014) [FLAC]/09 Codebreaker.flac
Track gain : -4.69 dB
Peak : 0.999969
CRC32 hash (test run) : BA17A4D3
CRC32 hash : BA17A4D3
CRC32 hash (skip zero) : F631A401
AccurateRip v1 signature : FD86CD05
AccurateRip v2 signature : 70050C5B
->Accurately ripped (v2, confidence 2/2)
Statistics
Read error : 0
Jitter error (maybe fixed) : 0
Retry sector count : 0
Damaged sector count : 0
Track 10
Filename : /Users/alderon54/Desktop/John Zorn - Valentine's Day (2014) [FLAC]/10 Map.flac
Track gain : -5.17 dB
Peak : 0.977417
CRC32 hash (test run) : 0EE4B001
CRC32 hash : 0EE4B001
CRC32 hash (skip zero) : 4E487EEA
AccurateRip v1 signature : C698D164
AccurateRip v2 signature : B1580D25
->Accurately ripped (v2, confidence 2/2)
Statistics
Read error : 0
Jitter error (maybe fixed) : 0
Retry sector count : 0
Damaged sector count : 0
Track 11
Filename : /Users/alderon54/Desktop/John Zorn - Valentine's Day (2014) [FLAC]/11 Black Mirror.flac
Track gain : -4.73 dB
Peak : 0.974762
CRC32 hash (test run) : 424D14C7
CRC32 hash : 424D14C7
CRC32 hash (skip zero) : 70E4613E
AccurateRip v1 signature : D3A03DE3
AccurateRip v2 signature : 760658D1
->Accurately ripped (v2, confidence 2/2)
Statistics
Read error : 0
Jitter error (maybe fixed) : 0
Retry sector count : 0
Damaged sector count : 0
Track 12
Filename : /Users/alderon54/Desktop/John Zorn - Valentine's Day (2014) [FLAC]/12 And The Clouds Drift By.flac
Track gain : -4.92 dB
Peak : 0.989258
CRC32 hash (test run) : 35B5C9E3
CRC32 hash : 35B5C9E3
CRC32 hash (skip zero) : 6C5BC943
AccurateRip v1 signature : 7063A9FB
AccurateRip v2 signature : CD4FF696
->Accurately ripped (v2, confidence 2/2)
Statistics
Read error : 0
Jitter error (maybe fixed) : 0
Retry sector count : 0
Damaged sector count : 0
No errors occurred
End of status report
-----BEGIN XLD SIGNATURE-----
jiRBGdII5vTJDIDxWrrQCls0X2dPoJEuuASIh9ftA.2WRpDtAYVvXg66gZzYdrY8bejNq1HgDf9pkcacMrPKmg0DDjXthL4qRPqywNm
-----END XLD SIGNATURE-----
 
Содержание индексной карты (.CUE)
TITLE "Valentine's Day"
PERFORMER "John Zorn"
REM GENRE "Jazz"
REM DATE "2014"
REM DISCNUMBER 1
REM TOTALDISCS 1
REM DISCID 960A4F0C
REM REPLAYGAIN_ALBUM_GAIN -4.40 dB
REM REPLAYGAIN_ALBUM_PEAK 1.000000
FILE "01 Potions And Poisons.flac" WAVE
TRACK 01 AUDIO
TITLE "Potions And Poisons"
PERFORMER "John Zorn"
FLAGS DCP
REM REPLAYGAIN_TRACK_GAIN -4.76 dB
REM REPLAYGAIN_TRACK_PEAK 0.970276
INDEX 01 00:00:00
FILE "02 Fireworks.flac" WAVE
TRACK 02 AUDIO
TITLE "Fireworks"
PERFORMER "John Zorn"
FLAGS DCP
REM REPLAYGAIN_TRACK_GAIN -4.29 dB
REM REPLAYGAIN_TRACK_PEAK 0.971924
INDEX 01 00:00:00
FILE "03 Blind Owl And Buckwheats.flac" WAVE
TRACK 03 AUDIO
TITLE "Blind Owl And Buckwheats"
PERFORMER "John Zorn"
FLAGS DCP
REM REPLAYGAIN_TRACK_GAIN -4.89 dB
REM REPLAYGAIN_TRACK_PEAK 0.992432
INDEX 01 00:00:00
FILE "04 Abramelin.flac" WAVE
TRACK 04 AUDIO
TITLE "Abramelin"
PERFORMER "John Zorn"
FLAGS DCP
REM REPLAYGAIN_TRACK_GAIN -4.51 dB
REM REPLAYGAIN_TRACK_PEAK 0.976288
INDEX 01 00:00:00
FILE "05 Seven Secrets.flac" WAVE
TRACK 05 AUDIO
TITLE "Seven Secrets"
PERFORMER "John Zorn"
FLAGS DCP
REM REPLAYGAIN_TRACK_GAIN -4.12 dB
REM REPLAYGAIN_TRACK_PEAK 1.000000
INDEX 01 00:00:00
FILE "06 Before I Saw The Spirit Of A Child.flac" WAVE
TRACK 06 AUDIO
TITLE "Before I Saw The Spirit Of A Child"
PERFORMER "John Zorn"
FLAGS DCP
REM REPLAYGAIN_TRACK_GAIN -1.66 dB
REM REPLAYGAIN_TRACK_PEAK 0.968781
INDEX 01 00:00:00
FILE "07 UX.flac" WAVE
TRACK 07 AUDIO
TITLE "UX"
PERFORMER "John Zorn"
FLAGS DCP
REM REPLAYGAIN_TRACK_GAIN -3.31 dB
REM REPLAYGAIN_TRACK_PEAK 0.985260
INDEX 01 00:00:00
FILE "08 The Voynich.flac" WAVE
TRACK 08 AUDIO
TITLE "The Voynich"
PERFORMER "John Zorn"
FLAGS DCP
REM REPLAYGAIN_TRACK_GAIN -3.35 dB
REM REPLAYGAIN_TRACK_PEAK 0.971985
INDEX 01 00:00:00
FILE "09 Codebreaker.flac" WAVE
TRACK 09 AUDIO
TITLE "Codebreaker"
PERFORMER "John Zorn"
FLAGS DCP
REM REPLAYGAIN_TRACK_GAIN -4.69 dB
REM REPLAYGAIN_TRACK_PEAK 0.999969
INDEX 01 00:00:00
FILE "10 Map.flac" WAVE
TRACK 10 AUDIO
TITLE "Map"
PERFORMER "John Zorn"
FLAGS DCP
REM REPLAYGAIN_TRACK_GAIN -5.17 dB
REM REPLAYGAIN_TRACK_PEAK 0.977417
INDEX 01 00:00:00
FILE "11 Black Mirror.flac" WAVE
TRACK 11 AUDIO
TITLE "Black Mirror"
PERFORMER "John Zorn"
FLAGS DCP
REM REPLAYGAIN_TRACK_GAIN -4.73 dB
REM REPLAYGAIN_TRACK_PEAK 0.974762
INDEX 01 00:00:00
FILE "12 And The Clouds Drift By.flac" WAVE
TRACK 12 AUDIO
TITLE "And The Clouds Drift By"
PERFORMER "John Zorn"
FLAGS DCP
REM REPLAYGAIN_TRACK_GAIN -4.92 dB
REM REPLAYGAIN_TRACK_PEAK 0.989258
INDEX 01 00:00:00
 
Лог проверки качества
fooCDtect - foobar2000 + auCDtect, baralgin.
auCDtect: CD records authenticity detector, version 0.8.2
Copyright (c) 2004 Oleg Berngardt. All rights reserved.
Copyright (c) 2004 Alexander Djourik. All rights reserved.
mode: 0
===========================================
Track: 01. Potions And Poisons
Quality: CDDA 100%
===========================================
Track: 02. Fireworks
Quality: CDDA 99%
===========================================
Track: 03. Blind Owl And Buckwheats
Quality: CDDA 100%
===========================================
Track: 04. Abramelin
Quality: CDDA 100%
===========================================
Track: 05. Seven Secrets
Quality: CDDA 99%
===========================================
Track: 06. Before I Saw The Spirit Of A Child
Quality: CDDA 99%
===========================================
Track: 07. UX
Quality: CDDA 99%
===========================================
Track: 08. The Voynich
Quality: CDDA 100%
===========================================
Track: 09. Codebreaker
Quality: CDDA 100%
===========================================
Track: 10. Map
Quality: CDDA 100%
===========================================
Track: 11. Black Mirror
Quality: CDDA 100%
===========================================
Track: 12. And The Clouds Drift By
Quality: CDDA 100%
===========================================
По всем вопросам пишите личное сообщение пользователю M0p94ok.
10:16
145
Нет комментариев. Ваш будет первым!