Вы используете незарегистрированную версию компонента "Вкладки"!

Поиск

(Modern Jazz, Free Improvisation) [CD] Jean-Marie Machado, Dave Liebman - Media Luz - 2014, FLAC (tracks+.cue), lossless

(Modern Jazz, Free Improvisation) [CD] Jean-Marie Machado, Dave Liebman - Media Luz - 2014, FLAC (tracks+.cue), lossless
Треклист:
Jean-Marie Machado, Dave Liebman - Media Luz Жанр: Modern Jazz, Free Improvisation
Носитель: CD
Год издания: 2014
Издатель (лейбл): La Buissonne/Deutsche Grammophon
Номер по каталогу: RJAL397020
Аудиокодек: FLAC (*.flac)
Тип рипа: tracks+.cue
Битрейт аудио: lossless
Продолжительность: 65:42
Rip by dtromp
Наличие сканов в содержимом раздачи: да
Треклист:
01. Media Luz (4:58)
02. Breath (7:20)
03. Canto e Tango a noite (3:26)
04. Lisboa a noite (5:14)
05. Calma a noite (1:48)
06. Snow day (6:37)
07. La tarde silenciosa (5:11)
08. Snake sonata 1er Mouvement (4:06)
09. Snake sonata 2eme Mouvement (7:54)
10. Snake sonata 3eme Mouvement (2:43)
11. An old friend (4:35)
12. Les herbes calmes, les grands arbres (3:09)
13. Des vagues douces, Noctiluca (1:47)
14. Brumes sur la terre humide (3:05)
15. Dernier soleil (3:50)
 
Лог создания рипа
Exact Audio Copy V1.0 beta 6 from 9. April 2015
EAC extraction logfile from 14. May 2015, 13:53
Jean-Marie Machado, Dave Liebman / Media Luz
Used drive : ATAPI iHBS112 2 Adapter: 1 ID: 0
Read mode : Secure
Utilize accurate stream : Yes
Defeat audio cache : Yes
Make use of C2 pointers : No
Read offset correction : 6
Overread into Lead-In and Lead-Out : No
Fill up missing offset samples with silence : Yes
Delete leading and trailing silent blocks : No
Null samples used in CRC calculations : Yes
Used interface : Native Win32 interface for Win NT & 2000
Gap handling : Appended to previous track
Used output format : User Defined Encoder
Selected bitrate : 1024 kBit/s
Quality : High
Add ID3 tag : No
Command line compressor : C:\Program Files\Exact Audio Copy\Flac\flac.exe
Additional command line options : -8 -V -T "ARTIST=%artist%" -T "TITLE=%title%" -T "ALBUM=%albumtitle%" -T "DATE=%year%" -T "TRACKNUMBER=%tracknr%" -T "TOTALTRACKS=%numtracks%" -T "GENRE=%genre%" -T "ALBUMARTIST=%albumartist%" -T "ALBUM ARTIST=%albumartist%" -T "COMPOSER=%composer%" -T "PERFORMER=%albuminterpret%" -T "DISCNUMBER=%cdnumber%" -T "TOTALDISCS=%totalcds%" -T "COMMENT=EAC Secure Mode, Test & Copy, AccurateRip, FLAC -8" %source%
TOC of the extracted CD
Track | Start | Length | Start sector | End sector
---------------------------------------------------------
1 | 0:00.00 | 4:58.03 | 0 | 22352
2 | 4:58.03 | 7:20.14 | 22353 | 55366
3 | 12:18.17 | 3:26.34 | 55367 | 70850
4 | 15:44.51 | 5:14.10 | 70851 | 94410
5 | 20:58.61 | 1:48.08 | 94411 | 102518
6 | 22:46.69 | 6:36.46 | 102519 | 132264
7 | 29:23.40 | 5:10.38 | 132265 | 155552
8 | 34:34.03 | 4:05.59 | 155553 | 173986
9 | 38:39.62 | 7:53.43 | 173987 | 209504
10 | 46:33.30 | 2:43.34 | 209505 | 221763
11 | 49:16.64 | 4:35.19 | 221764 | 242407
12 | 53:52.08 | 3:08.38 | 242408 | 256545
13 | 57:00.46 | 1:46.70 | 256546 | 264565
14 | 58:47.41 | 3:04.51 | 264566 | 278416
15 | 61:52.17 | 3:50.12 | 278417 | 295678
Track 1
Filename P:\DL\Jean-Marie Machado, Dave Liebman - Media Luz (2014) [FLAC]\01 - Media Luz.wav
Pre-gap length 0:00:02.00
Peak level 97.6 %
Extraction speed 5.1 X
Track quality 100.0 %
Test CRC 15D982F0
Copy CRC 15D982F0
Track not present in AccurateRip database
Copy OK
Track 2
Filename P:\DL\Jean-Marie Machado, Dave Liebman - Media Luz (2014) [FLAC]\02 - Breath.wav
Peak level 97.6 %
Extraction speed 5.5 X
Track quality 99.9 %
Test CRC 061E7FEF
Copy CRC 061E7FEF
Track not present in AccurateRip database
Copy OK
Track 3
Filename P:\DL\Jean-Marie Machado, Dave Liebman - Media Luz (2014) [FLAC]\03 - Canto e Tango a noite.wav
Peak level 97.5 %
Extraction speed 5.1 X
Track quality 99.9 %
Test CRC 6E34F219
Copy CRC 6E34F219
Track not present in AccurateRip database
Copy OK
Track 4
Filename P:\DL\Jean-Marie Machado, Dave Liebman - Media Luz (2014) [FLAC]\04 - Lisboa a noite.wav
Peak level 98.1 %
Extraction speed 6.9 X
Track quality 100.0 %
Test CRC 2F5CD7F6
Copy CRC 2F5CD7F6
Track not present in AccurateRip database
Copy OK
Track 5
Filename P:\DL\Jean-Marie Machado, Dave Liebman - Media Luz (2014) [FLAC]\05 - Calma a noite.wav
Peak level 96.9 %
Extraction speed 6.0 X
Track quality 100.0 %
Test CRC 4FEA9EA3
Copy CRC 4FEA9EA3
Track not present in AccurateRip database
Copy OK
Track 6
Filename P:\DL\Jean-Marie Machado, Dave Liebman - Media Luz (2014) [FLAC]\06 - Snow day.wav
Peak level 98.0 %
Extraction speed 7.8 X
Track quality 100.0 %
Test CRC BE99D380
Copy CRC BE99D380
Track not present in AccurateRip database
Copy OK
Track 7
Filename P:\DL\Jean-Marie Machado, Dave Liebman - Media Luz (2014) [FLAC]\07 - La tarde silenciosa.wav
Peak level 97.7 %
Extraction speed 8.1 X
Track quality 100.0 %
Test CRC DCFC1B41
Copy CRC DCFC1B41
Track not present in AccurateRip database
Copy OK
Track 8
Filename P:\DL\Jean-Marie Machado, Dave Liebman - Media Luz (2014) [FLAC]\08 - Snake sonata 1er Mouvement.wav
Peak level 97.8 %
Extraction speed 8.1 X
Track quality 100.0 %
Test CRC A44E28D8
Copy CRC A44E28D8
Track not present in AccurateRip database
Copy OK
Track 9
Filename P:\DL\Jean-Marie Machado, Dave Liebman - Media Luz (2014) [FLAC]\09 - Snake sonata 2eme Mouvement.wav
Peak level 97.0 %
Extraction speed 9.1 X
Track quality 100.0 %
Test CRC 949CA6F6
Copy CRC 949CA6F6
Track not present in AccurateRip database
Copy OK
Track 10
Filename P:\DL\Jean-Marie Machado, Dave Liebman - Media Luz (2014) [FLAC]\10 - Snake sonata 3eme Mouvement.wav
Peak level 98.2 %
Extraction speed 8.4 X
Track quality 100.0 %
Test CRC A8E40CA2
Copy CRC A8E40CA2
Track not present in AccurateRip database
Copy OK
Track 11
Filename P:\DL\Jean-Marie Machado, Dave Liebman - Media Luz (2014) [FLAC]\11 - An old friend.wav
Peak level 97.0 %
Extraction speed 9.2 X
Track quality 100.0 %
Test CRC 267F0F55
Copy CRC 267F0F55
Track not present in AccurateRip database
Copy OK
Track 12
Filename P:\DL\Jean-Marie Machado, Dave Liebman - Media Luz (2014) [FLAC]\12 - Les herbes calmes, les grands arbres.wav
Peak level 97.7 %
Extraction speed 9.0 X
Track quality 100.0 %
Test CRC 712E1859
Copy CRC 712E1859
Track not present in AccurateRip database
Copy OK
Track 13
Filename P:\DL\Jean-Marie Machado, Dave Liebman - Media Luz (2014) [FLAC]\13 - Des vagues douces, Noctiluca.wav
Peak level 98.0 %
Extraction speed 8.1 X
Track quality 100.0 %
Test CRC E26EDBFA
Copy CRC E26EDBFA
Track not present in AccurateRip database
Copy OK
Track 14
Filename P:\DL\Jean-Marie Machado, Dave Liebman - Media Luz (2014) [FLAC]\14 - Brumes sur la terre humide.wav
Peak level 97.5 %
Extraction speed 9.2 X
Track quality 100.0 %
Test CRC BD86EBEC
Copy CRC BD86EBEC
Track not present in AccurateRip database
Copy OK
Track 15
Filename P:\DL\Jean-Marie Machado, Dave Liebman - Media Luz (2014) [FLAC]\15 - Dernier soleil.wav
Peak level 97.9 %
Extraction speed 9.7 X
Track quality 100.0 %
Test CRC 1C61589E
Copy CRC 1C61589E
Track not present in AccurateRip database
Copy OK
None of the tracks are present in the AccurateRip database
No errors occurred
End of status report
---- CUETools DB Plugin V2.1.6
[CTDB TOCID: pKH9IWJX7Zh.3EkUOE94FHaofn8-] disk not present in database
Submit result:
==== Log checksum 126EAB045346C11AE62A2C390705FE44C5BAB241220B4FC7C451D1740F7B847C ====
 
Содержание индексной карты (.CUE)
REM GENRE Jazz
REM DATE 2014
REM DISCID D00F660F
REM COMMENT "ExactAudioCopy v1.0b6"
PERFORMER "Jean-Marie Machado, Dave Liebman"
TITLE "Media Luz"
FILE "01 - Media Luz.wav" WAVE
TRACK 01 AUDIO
TITLE "Media Luz"
PERFORMER "Jean-Marie Machado, Dave Liebman"
INDEX 01 00:00:00
FILE "02 - Breath.wav" WAVE
TRACK 02 AUDIO
TITLE "Breath"
PERFORMER "Jean-Marie Machado, Dave Liebman"
INDEX 01 00:00:00
FILE "03 - Canto e Tango a noite.wav" WAVE
TRACK 03 AUDIO
TITLE "Canto e Tango a noite"
PERFORMER "Jean-Marie Machado, Dave Liebman"
INDEX 01 00:00:00
FILE "04 - Lisboa a noite.wav" WAVE
TRACK 04 AUDIO
TITLE "Lisboa a noite"
PERFORMER "Jean-Marie Machado, Dave Liebman"
INDEX 01 00:00:00
FILE "05 - Calma a noite.wav" WAVE
TRACK 05 AUDIO
TITLE "Calma a noite"
PERFORMER "Jean-Marie Machado, Dave Liebman"
INDEX 01 00:00:00
FILE "06 - Snow day.wav" WAVE
TRACK 06 AUDIO
TITLE "Snow day"
PERFORMER "Jean-Marie Machado, Dave Liebman"
INDEX 01 00:00:00
FILE "07 - La tarde silenciosa.wav" WAVE
TRACK 07 AUDIO
TITLE "La tarde silenciosa"
PERFORMER "Jean-Marie Machado, Dave Liebman"
INDEX 01 00:00:00
FILE "08 - Snake sonata 1er Mouvement.wav" WAVE
TRACK 08 AUDIO
TITLE "Snake sonata 1er Mouvement"
PERFORMER "Jean-Marie Machado, Dave Liebman"
INDEX 01 00:00:00
FILE "09 - Snake sonata 2eme Mouvement.wav" WAVE
TRACK 09 AUDIO
TITLE "Snake sonata 2eme Mouvement"
PERFORMER "Jean-Marie Machado, Dave Liebman"
INDEX 01 00:00:00
FILE "10 - Snake sonata 3eme Mouvement.wav" WAVE
TRACK 10 AUDIO
TITLE "Snake sonata 3eme Mouvement"
PERFORMER "Jean-Marie Machado, Dave Liebman"
INDEX 01 00:00:00
FILE "11 - An old friend.wav" WAVE
TRACK 11 AUDIO
TITLE "An old friend"
PERFORMER "Jean-Marie Machado, Dave Liebman"
INDEX 01 00:00:00
FILE "12 - Les herbes calmes, les grands arbres.wav" WAVE
TRACK 12 AUDIO
TITLE "Les herbes calmes, les grands arbres"
PERFORMER "Jean-Marie Machado, Dave Liebman"
INDEX 01 00:00:00
FILE "13 - Des vagues douces, Noctiluca.wav" WAVE
TRACK 13 AUDIO
TITLE "Des vagues douces, Noctiluca"
PERFORMER "Jean-Marie Machado, Dave Liebman"
INDEX 01 00:00:00
FILE "14 - Brumes sur la terre humide.wav" WAVE
TRACK 14 AUDIO
TITLE "Brumes sur la terre humide"
PERFORMER "Jean-Marie Machado, Dave Liebman"
INDEX 01 00:00:00
FILE "15 - Dernier soleil.wav" WAVE
TRACK 15 AUDIO
TITLE "Dernier soleil"
PERFORMER "Jean-Marie Machado, Dave Liebman"
INDEX 01 00:00:00
 
Состав
Personnel:
JEAN-MARIE MACHADO piano, compositions & arrangements
DAVE LIEBMAN saxophone & compositions
CLAUS STOTTER flugelhorn & trumpet
QUATUOR PSOPHOS
ERIC LACROUTS violin
BLEUENN LE MAITRE violin
CECILE GRASSI alto
GUILLAUME MARTIGNE cello
По всем вопросам пишите личное сообщение пользователю M0p94ok.
13:29
180
Нет комментариев. Ваш будет первым!