Вы используете незарегистрированную версию компонента "Вкладки"!

Поиск

(Avant-Garde Jazz) [CD] Keith Jarrett - Creation - 2015 {ECM 2450}, FLAC (tracks+.cue), lossless

(Avant-Garde Jazz) [CD] Keith Jarrett - Creation - 2015 {ECM 2450}, FLAC (tracks+.cue), lossless
Треклист:
Keith Jarrett - Creation
Жанр: Avant-Garde Jazz
Носитель: CD
Год издания: 2015
Издатель (лейбл): ECM Records
Номер по каталогу: ECM 2450
Аудиокодек: FLAC (*.flac)
Тип рипа: tracks+.cue
Битрейт аудио: lossless
Продолжительность: 01:12:34
Источник (релизер): ruskaval
Наличие сканов в содержимом раздачи: да
Треклист:
01. Part I (8:17)
02. Part II (7:41)
03. Part III (6:59)
04. Part IV (7:33)
05. Part V (7:13)
06. Part VI (9:25)
07. Part VII (8:18)
08. Part VIII (8:36)
09. Part IX (8:31)
Keith Jarrett - piano solo
Recorded April, May, June and July 2014.
 
 
Лог создания рипа
Exact Audio Copy V1.0 beta 3 from 29. August 2011
EAC extraction logfile from 12. May 2015, 0:27
Keith Jarrett / Creation
Used drive : PLEXTOR BD-R PX-B950SA Adapter: 3 ID: 0
Read mode : Secure
Utilize accurate stream : Yes
Defeat audio cache : Yes
Make use of C2 pointers : No
Read offset correction : 6
Overread into Lead-In and Lead-Out : No
Fill up missing offset samples with silence : Yes
Delete leading and trailing silent blocks : No
Null samples used in CRC calculations : Yes
Used interface : Native Win32 interface for Win NT & 2000
Gap handling : Appended to previous track
Used output format : User Defined Encoder
Selected bitrate : 1024 kBit/s
Quality : High
Add ID3 tag : No
Command line compressor : C:\Program Files (x86)\Exact Audio Copy\Flac\flac.exe
Additional command line options : -8 -V -T "ARTIST=%artist%" -T "TITLE=%title%" -T "ALBUM=%albumtitle%" -T "DATE=%year%" -T "TRACKNUMBER=%tracknr%" -T "TOTALTRACKS=%numtracks%" -T "GENRE=%genre%" -T "ALBUMARTIST=%albumartist%" -T "ALBUM ARTIST=%albumartist%" -T "COMMENT=EAC Secure Mode, Test & Copy, AccurateRip, FLAC -8" %source%
TOC of the extracted CD
Track | Start | Length | Start sector | End sector
---------------------------------------------------------
1 | 0:00.00 | 8:17.27 | 0 | 37301
2 | 8:17.27 | 7:40.56 | 37302 | 71857
3 | 15:58.08 | 6:59.27 | 71858 | 103309
4 | 22:57.35 | 7:33.05 | 103310 | 137289
5 | 30:30.40 | 7:13.23 | 137290 | 169787
6 | 37:43.63 | 9:25.34 | 169788 | 212196
7 | 47:09.22 | 8:17.68 | 212197 | 249539
8 | 55:27.15 | 8:36.20 | 249540 | 288259
9 | 64:03.35 | 8:30.49 | 288260 | 326558
Track 1
Filename Z:\#Torrents\Eigene\#EAC default\Keith Jarrett - Creation (2015) [FLAC]\01 - Part I.wav
Pre-gap length 0:00:02.00
Peak level 94.0 %
Extraction speed 3.7 X
Track quality 99.9 %
Test CRC 55C0F484
Copy CRC 55C0F484
Track not present in AccurateRip database
Copy OK
Track 2
Filename Z:\#Torrents\Eigene\#EAC default\Keith Jarrett - Creation (2015) [FLAC]\02 - Part II.wav
Peak level 78.8 %
Extraction speed 6.3 X
Track quality 100.0 %
Test CRC 6C277B9A
Copy CRC 6C277B9A
Track not present in AccurateRip database
Copy OK
Track 3
Filename Z:\#Torrents\Eigene\#EAC default\Keith Jarrett - Creation (2015) [FLAC]\03 - Part III.wav
Peak level 55.9 %
Extraction speed 7.0 X
Track quality 100.0 %
Test CRC 241CE4FC
Copy CRC 241CE4FC
Track not present in AccurateRip database
Copy OK
Track 4
Filename Z:\#Torrents\Eigene\#EAC default\Keith Jarrett - Creation (2015) [FLAC]\04 - Part IV.wav
Peak level 95.9 %
Extraction speed 7.6 X
Track quality 100.0 %
Test CRC 70F7CDA8
Copy CRC 70F7CDA8
Track not present in AccurateRip database
Copy OK
Track 5
Filename Z:\#Torrents\Eigene\#EAC default\Keith Jarrett - Creation (2015) [FLAC]\05 - Part V.wav
Peak level 63.2 %
Extraction speed 8.2 X
Track quality 100.0 %
Test CRC DEDA66B5
Copy CRC DEDA66B5
Track not present in AccurateRip database
Copy OK
Track 6
Filename Z:\#Torrents\Eigene\#EAC default\Keith Jarrett - Creation (2015) [FLAC]\06 - Part VI.wav
Peak level 94.2 %
Extraction speed 8.9 X
Track quality 100.0 %
Test CRC ABE5D1C7
Copy CRC ABE5D1C7
Track not present in AccurateRip database
Copy OK
Track 7
Filename Z:\#Torrents\Eigene\#EAC default\Keith Jarrett - Creation (2015) [FLAC]\07 - Part VII.wav
Peak level 90.6 %
Extraction speed 9.4 X
Track quality 100.0 %
Test CRC F0A5400E
Copy CRC F0A5400E
Track not present in AccurateRip database
Copy OK
Track 8
Filename Z:\#Torrents\Eigene\#EAC default\Keith Jarrett - Creation (2015) [FLAC]\08 - Part VIII.wav
Peak level 69.0 %
Extraction speed 6.6 X
Track quality 99.9 %
Test CRC F8594F9B
Copy CRC F8594F9B
Track not present in AccurateRip database
Copy OK
Track 9
Filename Z:\#Torrents\Eigene\#EAC default\Keith Jarrett - Creation (2015) [FLAC]\09 - Part IX.wav
Peak level 89.1 %
Extraction speed 6.8 X
Track quality 99.9 %
Test CRC 882C387E
Copy CRC 882C387E
Track not present in AccurateRip database
Copy OK
None of the tracks are present in the AccurateRip database
No errors occurred
End of status report
---- CUETools DB Plugin V2.1.3
[CTDB TOCID: Tk0g9SBtF6JDeamfkIcq0iC1NYU-] found, Submit result: Tk0g9SBtF6JDeamfkIcq0iC1NYU- has been confirmed
[5b5769fb] (5/5) Accurately ripped
==== Log checksum 8173BD028E1BDB032C1D03AB44519B42D594539CE8A47C4882F3F8C0372B40FD ====
 
Содержание индексной карты (.CUE)
REM GENRE Jazz
REM DATE 2015
REM DISCID 8B110209
REM COMMENT "ExactAudioCopy v1.0b3"
PERFORMER "Keith Jarrett"
TITLE "Creation"
FILE "01 - Part I.wav" WAVE
TRACK 01 AUDIO
TITLE "Part I"
PERFORMER "Keith Jarrett"
INDEX 01 00:00:00
FILE "02 - Part II.wav" WAVE
TRACK 02 AUDIO
TITLE "Part II"
PERFORMER "Keith Jarrett"
INDEX 01 00:00:00
FILE "03 - Part III.wav" WAVE
TRACK 03 AUDIO
TITLE "Part III"
PERFORMER "Keith Jarrett"
INDEX 01 00:00:00
FILE "04 - Part IV.wav" WAVE
TRACK 04 AUDIO
TITLE "Part IV"
PERFORMER "Keith Jarrett"
INDEX 01 00:00:00
FILE "05 - Part V.wav" WAVE
TRACK 05 AUDIO
TITLE "Part V"
PERFORMER "Keith Jarrett"
INDEX 01 00:00:00
FILE "06 - Part VI.wav" WAVE
TRACK 06 AUDIO
TITLE "Part VI"
PERFORMER "Keith Jarrett"
INDEX 01 00:00:00
FILE "07 - Part VII.wav" WAVE
TRACK 07 AUDIO
TITLE "Part VII"
PERFORMER "Keith Jarrett"
INDEX 01 00:00:00
FILE "08 - Part VIII.wav" WAVE
TRACK 08 AUDIO
TITLE "Part VIII"
PERFORMER "Keith Jarrett"
INDEX 01 00:00:00
FILE "09 - Part IX.wav" WAVE
TRACK 09 AUDIO
TITLE "Part IX"
PERFORMER "Keith Jarrett"
INDEX 01 00:00:00
По всем вопросам пишите личное сообщение пользователю M0p94ok.
13:31
305
Нет комментариев. Ваш будет первым!