Вы используете незарегистрированную версию компонента "Вкладки"!

Поиск

(Free Jazz) [CD] Ivo Perelman, Matthew Shipp, Whit Dickey - The Clairvoyant - 2012, FLAC (tracks+.cue), lossless

(Free Jazz) [CD] Ivo Perelman, Matthew Shipp, Whit Dickey - The Clairvoyant - 2012, FLAC (tracks+.cue), lossless
Треклист:
Ivo Perelman, Matthew Shipp, Whit Dickey / The Clairvoyant
Жанр: Free Jazz
Носитель: CD
Страна-производитель диска (релиза): UK
Год издания: 2012
Издатель (лейбл): Leo Records
Номер по каталогу: CD LR 650
Аудиокодек: FLAC (*.flac)
Тип рипа: tracks+.cue
Битрейт аудио: lossless
Продолжительность: 47:59
Источник (релизер): cd
Наличие сканов в содержимом раздачи: нет
Треклист:
1. The Clairvoyant 9:03
2. Ritual 5:26
3. Torture And Glory 6:31
4. A Mere Speck Of Dust 4:30
5. State Of Grace 5:00
6. Silken Threads 4:43
7. The Expedients Of A Primitive Being 6:16
8. Fear Of Eternity 6:29
 
Лог создания рипа
Exact Audio Copy V1.0 beta 3 from 29. August 2011
EAC extraction logfile from 14. May 2015, 18:37
Ivo Perelman, Matthew Shipp, Whit Dickey / The Clairvoyant
Used drive : ASUS DRW-24F1ST a Adapter: 0 ID: 0
Read mode : Secure
Utilize accurate stream : Yes
Defeat audio cache : Yes
Make use of C2 pointers : No
Read offset correction : 6
Overread into Lead-In and Lead-Out : No
Fill up missing offset samples with silence : Yes
Delete leading and trailing silent blocks : No
Null samples used in CRC calculations : Yes
Used interface : Native Win32 interface for Win NT & 2000
Gap handling : Appended to previous track
Used output format : User Defined Encoder
Selected bitrate : 320 kBit/s
Quality : High
Add ID3 tag : No
Command line compressor : D:\Programs\Exact Audio Copy\Flac\flac.exe
Additional command line options : -V -8 -T "Genre=%genre%" -T "Artist=%artist%" -T "Title=%title%" -T "Album=%albumtitle%" -T "Date=%year%" -T "Tracknumber=%tracknr%" -T "Comment=%comment%" %source%
TOC of the extracted CD
Track | Start | Length | Start sector | End sector
---------------------------------------------------------
1 | 0:00.00 | 9:02.51 | 0 | 40700
2 | 9:02.51 | 5:26.05 | 40701 | 65155
3 | 14:28.56 | 6:31.16 | 65156 | 94496
4 | 20:59.72 | 4:30.23 | 94497 | 114769
5 | 25:30.20 | 5:00.32 | 114770 | 137301
6 | 30:30.52 | 4:43.24 | 137302 | 158550
7 | 35:14.01 | 6:16.09 | 158551 | 186759
8 | 41:30.10 | 6:29.17 | 186760 | 215951
Track 1
Filename D:\EAC\01 The Clairvoyant.wav
Pre-gap length 0:00:02.00
Peak level 100.0 %
Extraction speed 5.2 X
Track quality 100.0 %
Test CRC 1992A28D
Copy CRC 1992A28D
Copy OK
Track 2
Filename D:\EAC\02 Ritual.wav
Pre-gap length 0:00:03.00
Peak level 100.0 %
Extraction speed 5.8 X
Track quality 100.0 %
Test CRC AB3B81AC
Copy CRC AB3B81AC
Copy OK
Track 3
Filename D:\EAC\03 Torture And Glory.wav
Pre-gap length 0:00:03.00
Peak level 100.0 %
Extraction speed 6.5 X
Track quality 100.0 %
Test CRC 1DEE59B3
Copy CRC 1DEE59B3
Copy OK
Track 4
Filename D:\EAC\04 A Mere Speck Of Dust.wav
Pre-gap length 0:00:03.00
Peak level 100.0 %
Extraction speed 6.7 X
Track quality 100.0 %
Test CRC 00C10714
Copy CRC 00C10714
Copy OK
Track 5
Filename D:\EAC\05 State Of Grace.wav
Pre-gap length 0:00:03.00
Peak level 100.0 %
Extraction speed 6.4 X
Track quality 99.9 %
Test CRC DF1A0FC1
Copy CRC DF1A0FC1
Copy OK
Track 6
Filename D:\EAC\06 Silken Threads.wav
Pre-gap length 0:00:03.00
Peak level 100.0 %
Extraction speed 7.4 X
Track quality 100.0 %
Test CRC 816EEC84
Copy CRC 816EEC84
Copy OK
Track 7
Filename D:\EAC\07 The Expedients Of A Primitive Being.wav
Pre-gap length 0:00:03.00
Peak level 100.0 %
Extraction speed 7.4 X
Track quality 99.9 %
Test CRC 8A29C1F4
Copy CRC 8A29C1F4
Copy OK
Track 8
Filename D:\EAC\08 Fear Of Eternity.wav
Pre-gap length 0:00:03.00
Peak level 100.0 %
Extraction speed 8.5 X
Track quality 100.0 %
Test CRC 49DA4AF5
Copy CRC 49DA4AF5
Copy OK
No errors occurred
End of status report
==== Log checksum A4BB1BA9485659D1C07ECEEF30091E5F560C1EC4D6EDCBC8FBBE182A0AFB989B ====
 
Содержание индексной карты (.CUE)
REM GENRE Jazz
REM DATE 2014
REM DISCID 5C0B3F08
REM COMMENT "ExactAudioCopy v1.0b3"
PERFORMER "Ivo Perelman, Matthew Shipp, Whit Dickey"
TITLE "The Clairvoyant"
FILE "01 The Clairvoyant.wav" WAVE
TRACK 01 AUDIO
TITLE "The Clairvoyant "
PERFORMER "Ivo Perelman, Matthew Shipp, Whit Dickey"
FLAGS DCP
INDEX 01 00:00:00
TRACK 02 AUDIO
TITLE "Ritual"
PERFORMER "Ivo Perelman, Matthew Shipp, Whit Dickey"
FLAGS DCP
INDEX 00 08:59:51
FILE "02 Ritual.wav" WAVE
INDEX 01 00:00:00
TRACK 03 AUDIO
TITLE "Torture And Glory"
PERFORMER "Ivo Perelman, Matthew Shipp, Whit Dickey"
FLAGS DCP
INDEX 00 05:23:05
FILE "03 Torture And Glory.wav" WAVE
INDEX 01 00:00:00
TRACK 04 AUDIO
TITLE "A Mere Speck Of Dust"
PERFORMER "Ivo Perelman, Matthew Shipp, Whit Dickey"
FLAGS DCP
INDEX 00 06:28:16
FILE "04 A Mere Speck Of Dust.wav" WAVE
INDEX 01 00:00:00
TRACK 05 AUDIO
TITLE "State Of Grace"
PERFORMER "Ivo Perelman, Matthew Shipp, Whit Dickey"
FLAGS DCP
INDEX 00 04:27:23
FILE "05 State Of Grace.wav" WAVE
INDEX 01 00:00:00
TRACK 06 AUDIO
TITLE "Silken Threads"
PERFORMER "Ivo Perelman, Matthew Shipp, Whit Dickey"
FLAGS DCP
INDEX 00 04:57:32
FILE "06 Silken Threads.wav" WAVE
INDEX 01 00:00:00
TRACK 07 AUDIO
TITLE "The Expedients Of A Primitive Being"
PERFORMER "Ivo Perelman, Matthew Shipp, Whit Dickey"
FLAGS DCP
INDEX 00 04:40:24
FILE "07 The Expedients Of A Primitive Being.wav" WAVE
INDEX 01 00:00:00
TRACK 08 AUDIO
TITLE "Fear Of Eternity"
PERFORMER "Ivo Perelman, Matthew Shipp, Whit Dickey"
FLAGS DCP
INDEX 00 06:13:09
FILE "08 Fear Of Eternity.wav" WAVE
INDEX 01 00:00:00
Доп. информация: Recorded, mixed and mastered at Parkwest studios, Brooklyn NY, June 2012
 
Об альбоме (сборнике)
The first of the three CDs by Ivo Perelman released simultaneously. As Matthew Shipp writes in the liner notes: "The music we make together is like taking a journey through an enchanted forest - there will be some pretty wild vegetation, and along the way, some never-before-seen trees and flowers saturating the air with fresh fragrance, not to mention some hybrid species that are new to the listener, but they will become one with the music and chart their own course through this wild organic forest".
 
Состав
Drums – Whit Dickey
Piano – Matthew Shipp
Tenor Saxophone [Tenor Sax] – Ivo Perelman
По всем вопросам пишите личное сообщение пользователю M0p94ok.
13:28
172
Нет комментариев. Ваш будет первым!