Вы используете незарегистрированную версию компонента "Вкладки"!

Поиск

(Modern Jazz, Free Improvisation, Bee Jazz Records) Jean-Marie Machado & Dave Liebman - Eternal Moments - 2010, FLAC (tracks+.cue), lossless

(Modern Jazz, Free Improvisation, Bee Jazz Records) Jean-Marie Machado & Dave Liebman - Eternal Moments - 2010, FLAC (tracks+.cue), lossless
Треклист:
Jean-Marie Machado & Dave Liebman / Eternal Moments
Жанр: Modern Jazz, Free Improvisation, Bee Jazz Records
Страна-производитель диска: France
Год издания: 2010
Издатель (лейбл): Bee Jazz Records
Номер по каталогу: BEE 044
Аудиокодек: FLAC (*.flac)
Тип рипа: tracks+.cue
Битрейт аудио: lossless
Продолжительность: 59:23
Источник (релизер): Max Monteiro
Наличие сканов в содержимом раздачи: нет
Треклист:
1. Little Dog Waltz (Jean-Marie Machado) 5:49
2. Les Yeux de Tangati (Jean-Marie Machado) 10:10
3. The Gravel and the Bird (Dave Liebman) 4:28
4. Le Réveil de la mariée (Maurice Ravel) 5:59
5. Só à Noitinha (Saudades de Ti) (Amadeu do Vale / Raúl Ferrão-Frederico Valério) 9:05
6. Ugly Beauty (Thelonious Monk) 5:11
7. Fuschia (Dave Liebman) 10:11
8. Blue Spice (Jean-Marie Machado) 4:08
9. Moment calme (Jean-Marie Machado) 4:22
Recorded at Studio La Buissonne, Pernes-les-Fontaines (France) in May 2009.
Jean-Marie Machado – Piano
Dave Liebman – Saxophones, Wooden Flute
 
Лог создания рипа
Exact Audio Copy V1.0 beta 3 from 29. August 2011
EAC extraction logfile from 10. September 2013, 18:34
Jean-Marie Machado & Dave Liebman / Eternal Moments
Used drive : SlimtypeeNAU508 5 Adapter: 1 ID: 0
Read mode : Secure
Utilize accurate stream : Yes
Defeat audio cache : Yes
Make use of C2 pointers : No
Read offset correction : 6
Overread into Lead-In and Lead-Out : No
Fill up missing offset samples with silence : Yes
Delete leading and trailing silent blocks : No
Null samples used in CRC calculations : Yes
Used interface : Native Win32 interface for Win NT & 2000
Gap handling : Appended to previous track
Used output format : User Defined Encoder
Selected bitrate : 768 kBit/s
Quality : High
Add ID3 tag : No
Command line compressor : C:\Program Files (x86)\Exact Audio Copy\Flac\flac.exe
Additional command line options : -8 -V -T "ARTIST=%artist%" -T "TITLE=%title%" -T "ALBUM=%albumtitle%" -T "DATE=%year%" -T "TRACKNUMBER=%tracknr%" -T "GENRE=%genre%" -T "PERFORMER=%albuminterpret%" -T "COMPOSER=%composer%" %haslyrics%--tag-from-file=LYRICS="%lyricsfile%"%haslyrics% -T "ALBUMARTIST=%albumartist%" -T "DISCNUMBER=%cdnumber%" -T "TOTALDISCS=%totalcds%" -T "TOTALTRACKS=%numtracks%" -T "COMMENT=%comment%" %source% -o %dest%
TOC of the extracted CD
Track | Start | Length | Start sector | End sector
---------------------------------------------------------
1 | 0:00.00 | 5:48.46 | 0 | 26145
2 | 5:48.46 | 10:09.44 | 26146 | 71864
3 | 15:58.15 | 4:27.49 | 71865 | 91938
4 | 20:25.64 | 5:59.26 | 91939 | 118889
5 | 26:25.15 | 9:05.12 | 118890 | 159776
6 | 35:30.27 | 5:11.07 | 159777 | 183108
7 | 40:41.34 | 10:11.10 | 183109 | 228943
8 | 50:52.44 | 4:08.32 | 228944 | 247575
9 | 55:01.01 | 4:22.28 | 247576 | 267253
Track 1
Filename C:\EAC rips\01 - Little Dog Waltz.wav
Pre-gap length 0:00:02.00
Peak level 97.2 %
Extraction speed 2.0 X
Track quality 99.9 %
Test CRC DD948043
Copy CRC DD948043
Accurately ripped (confidence 2) [FDEE7249] (AR v2)
Copy OK
Track 2
Filename C:\EAC rips\02 - Les Yeux de Tangati.wav
Peak level 97.5 %
Extraction speed 2.8 X
Track quality 100.0 %
Test CRC C5632D1D
Copy CRC C5632D1D
Accurately ripped (confidence 2) [848DFB9A] (AR v2)
Copy OK
Track 3
Filename C:\EAC rips\03 - The Gravel and the Bird.wav
Peak level 97.0 %
Extraction speed 3.0 X
Track quality 100.0 %
Test CRC 09D19644
Copy CRC 09D19644
Accurately ripped (confidence 2) [89BE94C5] (AR v2)
Copy OK
Track 4
Filename C:\EAC rips\04 - Le Réveil de la mariée.wav
Peak level 97.7 %
Extraction speed 3.3 X
Track quality 100.0 %
Test CRC C86745A1
Copy CRC C86745A1
Accurately ripped (confidence 2) [57291190] (AR v2)
Copy OK
Track 5
Filename C:\EAC rips\05 - Só à Noitinha (Saudades de Ti).wav
Peak level 97.0 %
Extraction speed 3.7 X
Track quality 100.0 %
Test CRC 93F30F61
Copy CRC 93F30F61
Accurately ripped (confidence 2) [B257249D] (AR v2)
Copy OK
Track 6
Filename C:\EAC rips\06 - Ugly Beauty.wav
Peak level 97.2 %
Extraction speed 3.3 X
Track quality 99.9 %
Test CRC 343A688C
Copy CRC 343A688C
Accurately ripped (confidence 2) [A9CCBE70] (AR v2)
Copy OK
Track 7
Filename C:\EAC rips\07 - Fuschia.wav
Peak level 97.7 %
Extraction speed 4.3 X
Track quality 100.0 %
Test CRC 77DA4BD8
Copy CRC 77DA4BD8
Accurately ripped (confidence 2) [A3FE8788] (AR v2)
Copy OK
Track 8
Filename C:\EAC rips\08 - Blue Spice.wav
Peak level 97.4 %
Extraction speed 4.2 X
Track quality 100.0 %
Test CRC C0B9E44E
Copy CRC C0B9E44E
Accurately ripped (confidence 2) [60B32D12] (AR v2)
Copy OK
Track 9
Filename C:\EAC rips\09 - Moment calme.wav
Peak level 92.4 %
Extraction speed 4.3 X
Track quality 100.0 %
Test CRC F3EA4DAC
Copy CRC F3EA4DAC
Accurately ripped (confidence 2) [C6C6C7DB] (AR v2)
Copy OK
All tracks accurately ripped
No errors occurred
End of status report
---- CUETools DB Plugin V2.1.4
[CTDB TOCID: 9rv_GJZNsHOvD3.4u1arVFgqLnA-] disk not present in database
Submit result: 9rv_GJZNsHOvD3.4u1arVFgqLnA- has been uploaded
==== Log checksum DCBF0172909D0BBF7A2BF76C07E201E768D20970A20B233EEC7C8AC87F94642A ====
 
Содержание индексной карты (.CUE)
REM GENRE Jazz
REM DATE 2010
REM DISCID 640DEB09
REM COMMENT "ExactAudioCopy v1.0b3"
PERFORMER "Jean-Marie Machado & Dave Liebman"
TITLE "Eternal Moments"
FILE "01 - Little Dog Waltz.wav" WAVE
TRACK 01 AUDIO
TITLE "Little Dog Waltz"
PERFORMER "Jean-Marie Machado & Dave Liebman"
ISRC FR66V1003111
INDEX 01 00:00:00
FILE "02 - Les Yeux de Tangati.wav" WAVE
TRACK 02 AUDIO
TITLE "Les Yeux de Tangati"
PERFORMER "Jean-Marie Machado & Dave Liebman"
ISRC FR66V1003112
INDEX 01 00:00:00
FILE "03 - The Gravel and the Bird.wav" WAVE
TRACK 03 AUDIO
TITLE "The Gravel and the Bird"
PERFORMER "Jean-Marie Machado & Dave Liebman"
ISRC FR66V1003113
INDEX 01 00:00:00
FILE "04 - Le Réveil de la mariée.wav" WAVE
TRACK 04 AUDIO
TITLE "Le Réveil de la mariée"
PERFORMER "Jean-Marie Machado & Dave Liebman"
ISRC FR66V1003114
INDEX 01 00:00:00
FILE "05 - Só à Noitinha (Saudades de Ti).wav" WAVE
TRACK 05 AUDIO
TITLE "Só à Noitinha (Saudades de Ti)"
PERFORMER "Jean-Marie Machado & Dave Liebman"
ISRC FR66V1003115
INDEX 01 00:00:00
FILE "06 - Ugly Beauty.wav" WAVE
TRACK 06 AUDIO
TITLE "Ugly Beauty"
PERFORMER "Jean-Marie Machado & Dave Liebman"
ISRC FR66V1003116
INDEX 01 00:00:00
FILE "07 - Fuschia.wav" WAVE
TRACK 07 AUDIO
TITLE "Fuschia"
PERFORMER "Jean-Marie Machado & Dave Liebman"
ISRC FR66V1003117
INDEX 01 00:00:00
FILE "08 - Blue Spice.wav" WAVE
TRACK 08 AUDIO
TITLE "Blue Spice"
PERFORMER "Jean-Marie Machado & Dave Liebman"
ISRC FR66V1003118
INDEX 01 00:00:00
FILE "09 - Moment calme.wav" WAVE
TRACK 09 AUDIO
TITLE "Moment calme"
PERFORMER "Jean-Marie Machado & Dave Liebman"
ISRC FR66V1003119
INDEX 01 00:00:00
По всем вопросам пишите личное сообщение пользователю M0p94ok.
18:01
188
Нет комментариев. Ваш будет первым!