Вы используете незарегистрированную версию компонента "Вкладки"!

Поиск

(Free Improvisation) Taylor Ho Bynum Sextet (Tomas Fujiwara, Evan O'Reilly, Mary Halvorson, Matt Bauder, Jessica Pavone) - The Middle Picture - 2007, FLAC (image+.cue), lossless

(Free Improvisation) Taylor Ho Bynum Sextet (Tomas Fujiwara, Evan O'Reilly, Mary Halvorson, Matt Bauder, Jessica Pavone) - The Middle Picture - 2007, FLAC (image+.cue), lossless
Треклист:
Taylor Ho Bynum Sextet / The Middle Picture
Жанр: Free Improvisation
Страна-производитель диска: US
Год издания: 2007
Издатель (лейбл): Firehouse 12 Records
Номер по каталогу: FH12-04-01-002
Аудиокодек: FLAC (*.flac)
Тип рипа: image+.cue
Битрейт аудио: lossless
Продолжительность: 60:26
Источник (релизер): cd
Наличие сканов в содержимом раздачи: нет
Треклист:
1. Brooklyn With An E 8:06
2. Woods 7:34
3. In A Silent Way 5:17
4. Mm(Pf) 4:32
5. Bluebird Of Delhi 3:42
6. 3v2 8:09
7. JP & The Boston Suburbs - Parts 1 & 2 9:34
8. JP & The Boston Suburbs - Part 3 6:34
9. Apace 6:55
 
Лог создания рипа
Exact Audio Copy V1.0 beta 2 from 29. April 2011
EAC extraction logfile from 11. September 2013, 11:25
taylor ho bynum sextet / the middle picture
Used drive : Optiarc DVD RW AD-7170A Adapter: 0 ID: 0
Read mode : Secure
Utilize accurate stream : Yes
Defeat audio cache : Yes
Make use of C2 pointers : No
Read offset correction : 48
Overread into Lead-In and Lead-Out : No
Fill up missing offset samples with silence : Yes
Delete leading and trailing silent blocks : No
Null samples used in CRC calculations : Yes
Used interface : Native Win32 interface for Win NT & 2000
Used output format : User Defined Encoder
Selected bitrate : 320 kBit/s
Quality : High
Add ID3 tag : No
Command line compressor : C:\Program Files\Exact Audio Copy\Flac\flac.exe
Additional command line options : -V -8 -T "Date=%year%" -T "Genre=%genre%" %source%
TOC of the extracted CD
Track | Start | Length | Start sector | End sector
---------------------------------------------------------
1 | 0:00.00 | 8:06.51 | 0 | 36500
2 | 8:06.51 | 7:34.16 | 36501 | 70566
3 | 15:40.67 | 5:16.74 | 70567 | 94340
4 | 20:57.66 | 4:32.46 | 94341 | 114786
5 | 25:30.37 | 3:41.70 | 114787 | 131431
6 | 29:12.32 | 8:09.41 | 131432 | 168147
7 | 37:21.73 | 9:33.70 | 168148 | 211192
8 | 46:55.68 | 6:34.63 | 211193 | 240805
9 | 53:30.56 | 6:55.65 | 240806 | 271995
Range status and errors
Selected range
Filename K:\ЕАС\taylor ho bynum sextet - the middle picture.wav
Peak level 97.7 %
Extraction speed 2.0 X
Range quality 100.0 %
Test CRC 58B29C9E
Copy CRC 58B29C9E
Copy OK
No errors occurred
AccurateRip summary
Track 1 not present in database
Track 2 not present in database
Track 3 not present in database
Track 4 not present in database
Track 5 not present in database
Track 6 not present in database
Track 7 not present in database
Track 8 not present in database
Track 9 not present in database
None of the tracks are present in the AccurateRip database
End of status report
==== Log checksum DF609706EE987D3E45AF0F813808F16FB2353855B965A065AEDAB6F2AA560AED ====
 
Содержание индексной карты (.CUE)
REM GENRE Jazz
REM DATE 2006
REM DISCID 770E2A09
REM COMMENT "ExactAudioCopy v1.0b2"
PERFORMER "taylor ho bynum sextet"
TITLE "the middle picture"
FILE "taylor ho bynum sextet - the middle picture.flac" WAVE
TRACK 01 AUDIO
TITLE "Brooklyn with an E"
PERFORMER "taylor ho bynum sextet"
ISRC 000000000000
INDEX 01 00:00:00
TRACK 02 AUDIO
TITLE "Woods"
PERFORMER "taylor ho bynum sextet"
ISRC 000000000000
INDEX 00 08:03:47
INDEX 01 08:06:51
TRACK 03 AUDIO
TITLE "In a Silent Way"
PERFORMER "taylor ho bynum sextet"
ISRC 000000000000
INDEX 01 15:40:67
TRACK 04 AUDIO
TITLE "mm(pf)"
PERFORMER "taylor ho bynum sextet"
ISRC 000000000000
INDEX 00 20:54:22
INDEX 01 20:57:66
TRACK 05 AUDIO
TITLE "Bluebird of Delhi"
PERFORMER "taylor ho bynum sextet"
ISRC 000000000000
INDEX 00 25:29:33
INDEX 01 25:30:37
TRACK 06 AUDIO
TITLE "3v2"
PERFORMER "taylor ho bynum sextet"
ISRC 000000000000
INDEX 00 29:11:23
INDEX 01 29:12:32
TRACK 07 AUDIO
TITLE "JP & the Boston Suburbs: Parts 1 & 2"
PERFORMER "taylor ho bynum sextet"
ISRC 000000000000
INDEX 00 37:17:29
INDEX 01 37:21:73
TRACK 08 AUDIO
TITLE "JP & the Boston Suburbs: Part 3 (aka Knit & Swim)"
PERFORMER "taylor ho bynum sextet"
ISRC 000000000000
INDEX 01 46:55:68
TRACK 09 AUDIO
TITLE "Apace"
PERFORMER "taylor ho bynum sextet"
ISRC 000000000000
INDEX 00 53:27:45
INDEX 01 53:30:56
Доп. информация: Recorded on 20 October 2005 & 6 December 2006
 
Об альбоме (сборнике)
Cornet player Taylor Ho Bynum likes the concept of a suite. For the majority of his spontaneous compositions, he plays partitioned beginning, middle, and end segments. Each staging is distinct, but flows from one to the next with brief pauses. Bynum is a subliminal force on his instrument. He enjoys smaller-ensemble playing within his sextet; rarely do the bandmembers play together all at once. For the selections here, six are from his six-piece ensemble, and two are trio numbers. There are two "covers." Miles Davis' "In a Silent Way" is unusual, spacious, and bold, the clangy echoing electric mutant guitars of Mary Halvorson and Evan O'Reilly sounding nothing like John McLaughlin, with the lead instrument being Matt Bauder's clarinet. Billy Strayhorn and Duke Ellington's "Bluebird of Delhi" sounds like it was recorded on the most fun Halloween night ever. The guitars recall Fred Frith, Nels Cline, or Robert Fripp. The large-ensemble improvisations feature mostly low-key dynamics, call and response, and insistent improvs. "Woods" is in the dark woods late at night, but there's Bauder's bass clarinet leading into a free-bop clearing. "mm(pf)" utilizes even more stealth undertones that are only somewhat dramatic. "3V2" recalls a Polish dance with very loosely defined transitions, the band wailing at the end. Jessica Pavone is effective on her electric bass guitar, but more so on viola introducing "3v2." The 17-minute "J.P & the Boston Suburbs" suite is too intricate and involved, likely best heard live. Trio pieces bookend the recording, with Bynum, Halvorson, and drummer Tomas Fujiwara, "Brooklyn with a B" being a fractured swing-blues that starts the CD off nicely. Bynum's "Middle Picture" contrasts the exultant highs and depressing lows of life, but this is not mediocrity or a gray area. It is a happy, expressive, challenging medium of creative improvised modern music.
 
Состав
Cornet – Taylor Ho Bynum
Drums – Tomas Fujiwara
Electric Guitar – Evan O'Reilly, Mary Halvorson
Tenor Saxophone, Clarinet, Bass Clarinet – Matt Bauder
Viola, Electric Bass – Jessica Pavone
Any questions -> support@pro-jazz.com. По всем вопросам пишите -> support@pro-jazz.com
18:02
202
Нет комментариев. Ваш будет первым!