Вы используете незарегистрированную версию компонента "Вкладки"!

Поиск

(Avant-garde Jazz, Free Improvisation) Ben Goldberg (Larry Ochs, John Schott, L.S. Ellis, Trevor Dunn, Michael Sarin) - Eight Phrases for Jefferson Rubin - 1998, FLAC (image+.cue), lossless

(Avant-garde Jazz, Free Improvisation) Ben Goldberg (Larry Ochs, John Schott, L.S. Ellis, Trevor Dunn, Michael Sarin) - Eight Phrases for Jefferson Rubin - 1998, FLAC (image+.cue), lossless
Треклист:
Ben Goldberg / Eight Phrases for Jefferson Rubin
Жанр: Avant-garde Jazz, Free Improvisation
Страна-производитель диска: Canada
Год издания: 1998
Издатель (лейбл): Les Disques Victo
Номер по каталогу: 057
Аудиокодек: FLAC (*.flac)
Тип рипа: image+.cue
Битрейт аудио: lossless
Продолжительность: 61:43
Источник (релизер): cd
Наличие сканов в содержимом раздачи: нет
Треклист:
1. Problem 7:07
2. Plain Of Jars 10:55
3. Visited 7:55
4. Eight Phrases 10:52
5. Brace And Bit 5:37
6. Elements 4:44
7. Lost Touch 9:19
8. Snow 5:10
 
Лог создания рипа
Exact Audio Copy V1.0 beta 2 from 29. April 2011
EAC extraction logfile from 11. September 2013, 15:15
Ben Goldberg / Eight Phrases for Jefferson Rubin
Used drive : Optiarc DVD RW AD-7170A Adapter: 0 ID: 0
Read mode : Secure
Utilize accurate stream : Yes
Defeat audio cache : Yes
Make use of C2 pointers : No
Read offset correction : 48
Overread into Lead-In and Lead-Out : No
Fill up missing offset samples with silence : Yes
Delete leading and trailing silent blocks : No
Null samples used in CRC calculations : Yes
Used interface : Native Win32 interface for Win NT & 2000
Used output format : User Defined Encoder
Selected bitrate : 320 kBit/s
Quality : High
Add ID3 tag : No
Command line compressor : C:\Program Files\Exact Audio Copy\Flac\flac.exe
Additional command line options : -V -8 -T "Date=%year%" -T "Genre=%genre%" %source%
TOC of the extracted CD
Track | Start | Length | Start sector | End sector
---------------------------------------------------------
1 | 0:00.00 | 7:10.00 | 0 | 32249
2 | 7:10.00 | 10:56.72 | 32250 | 81521
3 | 18:06.72 | 7:54.60 | 81522 | 117131
4 | 26:01.57 | 10:51.68 | 117132 | 166024
5 | 36:53.50 | 5:37.37 | 166025 | 191336
6 | 42:31.12 | 4:43.53 | 191337 | 212614
7 | 47:14.65 | 9:19.32 | 212615 | 254571
8 | 56:34.22 | 5:09.43 | 254572 | 277789
Range status and errors
Selected range
Filename K:\ЕАС\Ben Goldberg - Eight Phrases for Jefferson Rubin.wav
Peak level 92.1 %
Extraction speed 2.0 X
Range quality 100.0 %
Test CRC 621E9501
Copy CRC 621E9501
Copy OK
No errors occurred
AccurateRip summary
Track 1 not present in database
Track 2 not present in database
Track 3 not present in database
Track 4 not present in database
Track 5 not present in database
Track 6 not present in database
Track 7 not present in database
Track 8 not present in database
None of the tracks are present in the AccurateRip database
End of status report
==== Log checksum 05F16DCB3091CD268CA9FBE84E1CABBAC3FC43FA780F336E045AC537D808BFAB ====
 
Содержание индексной карты (.CUE)
REM GENRE Jazz
REM DATE 1998
REM DISCID 6C0E7708
REM COMMENT "ExactAudioCopy v1.0b2"
PERFORMER "Ben Goldberg"
TITLE "Eight Phrases for Jefferson Rubin"
FILE "Ben Goldberg - Eight Phrases for Jefferson Rubin.flac" WAVE
TRACK 01 AUDIO
TITLE "Problem"
PERFORMER "Ben Goldberg"
ISRC 000000000000
INDEX 01 00:00:00
TRACK 02 AUDIO
TITLE "Plain of Jars"
PERFORMER "Ben Goldberg"
ISRC 000000000000
INDEX 00 07:05:65
INDEX 01 07:10:00
TRACK 03 AUDIO
TITLE "Visited"
PERFORMER "Ben Goldberg"
ISRC 000000000000
INDEX 00 18:04:65
INDEX 01 18:06:72
TRACK 04 AUDIO
TITLE "Eight Phrases"
PERFORMER "Ben Goldberg"
ISRC 000000000000
INDEX 00 26:01:15
INDEX 01 26:01:57
TRACK 05 AUDIO
TITLE "Brace and Bit"
PERFORMER "Ben Goldberg"
ISRC 000000000000
INDEX 00 36:53:27
INDEX 01 36:53:50
TRACK 06 AUDIO
TITLE "Elements"
PERFORMER "Ben Goldberg"
ISRC 000000000000
INDEX 00 42:27:52
INDEX 01 42:31:12
TRACK 07 AUDIO
TITLE "Lost Touch"
PERFORMER "Ben Goldberg"
ISRC 000000000000
INDEX 00 47:11:27
INDEX 01 47:14:65
TRACK 08 AUDIO
TITLE "Snow"
PERFORMER "Ben Goldberg"
ISRC 000000000000
INDEX 00 56:27:65
INDEX 01 56:34:22
Доп. информация: Recorded and mixed at studio OTR in November 1996.
"In Memory of Jefferson Darrow Rubin 1959-1995"
 
Об альбоме (сборнике)
Recorded in studio in November 1996, Ben Goldberg's project Eight Phrases for Jefferson Rubin was his second composition for sextet (after Twelve Minor, released by Avant in 1998). Rubin, who died tragically at the age of 35, was one of Goldberg's childhood friends. Thus the music is not always cheerful, but it doesn't fall into mournful soliloquies either. The sextet the clarinetist gathered comprises a second reed player (Rova saxophonist Larry Ochs), guitar (John Schott), two double basses (Lisle Ellis and the ubiquitous jazzing-when-not-rocking Trevor Dunn), and drums (Michael Sarin). Eight Phrases for Jefferson Rubin follows the klezmer-tinged avant-garde jazz style prominent in New York at the end of 1990s. Comparisons to John Zorn's Masada, Marty Ehrlich, and West Coast new jazz are all in order, since there is something of Vinny Golia's touch here too. "Problem" sets the mood -- free-form in the underground, carefully written melodies above. "Plain of Jars" is a slow, depressive piece lacking a clear direction and makes for the worst ten minutes of the set, but "Visited" picks up the pace and features a good solo courtesy of Schott. The title track is the real showcase for Goldberg, his bass clarinet hinting at Jewish mourning songs. Not a groundbreaking album, but an honest and enjoyable effort.
 
Состав
Composed By, Producer, Clarinet – Ben Goldberg
Double Bass – L.S. Ellis, Trevor Dunn
Drums – Michael Sarin
Guitar – John Schott
Tenor Saxophone, Sopranino Saxophone – Larry Ochs
По всем вопросам пишите личное сообщение пользователю M0p94ok.
18:02
189
Нет комментариев. Ваш будет первым!